<?xml version="1.0" standalone="no"?>
<!DOCTYPE svg PUBLIC "-//W3C//DTD SVG 1.1//EN" "http://www.w3.org/Graphics/SVG/1.1/DTD/svg11.dtd" >
<svg xmlns="http://www.w3.org/2000/svg">
<metadata></metadata>
<defs>
<font id="verb_blackregular" horiz-adv-x="637" >
<font-face units-per-em="1000" ascent="800" descent="-200" />
<missing-glyph horiz-adv-x="264" />
<glyph unicode="&#xfb01;" horiz-adv-x="687" d="M15 391v134h72q1 103 43 153.5t131 50.5q70 0 152 -37l-40 -126q-44 13 -61 13q-12 0 -19.5 -2t-15 -13t-7.5 -31v-8h125v-134h-125v-391h-183v391h-72zM450 582v144h192v-144h-192zM453 0v525h185v-525h-185z" />
<glyph unicode="&#xfb02;" horiz-adv-x="689" d="M15 391v134h72q1 103 43 153.5t131 50.5q70 0 152 -37l-40 -126q-44 13 -61 13q-12 0 -19.5 -2t-15 -13t-7.5 -31v-8h125v-134h-125v-391h-183v391h-72zM454 0v729h185v-729h-185z" />
<glyph unicode="&#xfb03;" horiz-adv-x="1083" d="M15 391v134h72q1 103 43 153.5t131 50.5q91 0 193 -46l-47 -123q-65 19 -95 19q-12 0 -19.5 -2t-15 -13t-7.5 -31v-8h106v-134h-106v-391h-183v391h-72zM410 391v134h71q1 103 43 153.5t132 50.5q72 0 151 -37l-40 -126q-42 13 -61 13q-12 0 -19.5 -2t-14.5 -13t-7 -31 v-8h124v-134h-124v-391h-184v391h-71zM846 582v144h192v-144h-192zM849 0v525h184v-525h-184z" />
<glyph unicode="&#xfb04;" horiz-adv-x="1084" d="M15 391v134h72q1 103 43 153.5t131 50.5q91 0 193 -46l-47 -123q-65 19 -95 19q-12 0 -19.5 -2t-15 -13t-7.5 -31v-8h106v-134h-106v-391h-183v391h-72zM410 391v134h71q1 103 43 153.5t132 50.5q72 0 151 -37l-40 -126q-42 13 -61 13q-12 0 -19.5 -2t-14.5 -13t-7 -31 v-8h124v-134h-124v-391h-184v391h-71zM850 0v729h184v-729h-184z" />
<glyph horiz-adv-x="1000" />
<glyph horiz-adv-x="1000" />
<glyph unicode="&#xd;" horiz-adv-x="1000" />
<glyph unicode=" "  horiz-adv-x="264" />
<glyph unicode="&#x09;" horiz-adv-x="264" />
<glyph unicode="&#xa0;" horiz-adv-x="264" />
<glyph unicode="!" horiz-adv-x="294" d="M35 700h225l-58 -463h-110zM55 0v177h184v-177h-184z" />
<glyph unicode="&#x22;" horiz-adv-x="455" d="M30 700h172l-29 -282h-114zM254 700h171l-29 -282h-113z" />
<glyph unicode="#" horiz-adv-x="731" d="M31 144v137h125l21 138h-105v138h126l22 143h140l-22 -143h118l22 143h141l-22 -143h104v-138h-125l-21 -138h104v-137h-125l-22 -144h-140l22 144h-118l-22 -144h-141l22 144h-104zM296 281h118l21 138h-118z" />
<glyph unicode="$" horiz-adv-x="670" d="M27 89l84 136q49 -28 124 -53t125 -25q34 0 56 11.5t22 33.5q0 24 -25.5 37t-92 30t-108.5 33q-170 66 -170 205q0 86 60 144.5t172 67.5v92h132v-98q116 -19 214 -69l-85 -138q-47 21 -109 39t-104 18q-77 0 -77 -44q0 -24 26 -37t89.5 -29t105.5 -32q34 -13 59 -27 t54.5 -37.5t45.5 -59.5t16 -81q0 -87 -62 -146.5t-173 -68.5v-91h-132v97q-140 22 -247 92z" />
<glyph unicode="%" horiz-adv-x="1019" d="M26 523q0 87 52.5 137.5t149.5 50.5t150 -50.5t53 -137.5t-53 -137t-150 -50t-149.5 50t-52.5 137zM159 523q0 -77 69 -77t69 77q0 78 -69 78t-69 -78zM259 0l360 700h140l-360 -700h-140zM589 176q0 87 52.5 137.5t149.5 50.5t149.5 -50.5t52.5 -137.5t-52.5 -137 t-149.5 -50t-149.5 50t-52.5 137zM722 176q0 -77 69 -77t69 77q0 78 -69 78t-69 -78z" />
<glyph unicode="&#x26;" horiz-adv-x="739" d="M43 179q0 60 37 105t101 85q-43 44 -65.5 82.5t-22.5 83.5q0 78 62.5 127t161.5 49t158 -48.5t59 -117.5q0 -53 -35.5 -97.5t-97.5 -90.5l97 -96q30 54 31 108h185q-20 -121 -99 -222l150 -147h-210l-49 48q-97 -59 -218 -59q-107 0 -176 54t-69 136zM224 185 q0 -25 21.5 -43t58.5 -18q45 0 94 30l-116 116q-58 -48 -58 -85zM257 528q0 -34 51 -83q62 43 62 83q0 20 -14 37.5t-41 17.5t-42.5 -17.5t-15.5 -37.5z" />
<glyph unicode="'" horiz-adv-x="232" d="M30 700h172l-29 -282h-114z" />
<glyph unicode="(" horiz-adv-x="346" d="M47 125v445q0 32 0.5 47.5t2.5 40t6.5 37t12.5 31t20.5 29t30.5 24t42.5 22.5t56.5 19t73 19l45 -100q-67 -24 -83 -46t-16 -73v-544q0 -51 16 -73t83 -46l-45 -100q-46 10 -80.5 20t-60.5 23.5t-43.5 24.5t-29.5 30.5t-18 32.5t-9 40t-3.5 44.5t-0.5 52.5z" />
<glyph unicode=")" horiz-adv-x="346" d="M9 -43q67 24 83 46t16 73v544q0 51 -16 73t-83 46l46 100q90 -20 141 -41.5t73 -59.5t26 -68.5t4 -99.5v-445v-42.5t-1.5 -37t-5 -34.5t-9 -29t-15 -27.5t-22.5 -23t-31 -21.5t-41 -18.5t-52.5 -18.5t-66.5 -16z" />
<glyph unicode="*" horiz-adv-x="473" d="M29 464l162 32l-162 33l75 131l110 -125l-53 157h151l-53 -157l109 125l75 -131l-154 -32l154 -33l-75 -131l-106 117l50 -150h-151l53 157l-110 -124z" />
<glyph unicode="+" horiz-adv-x="652" d="M64 265v137h193v174h137v-174h193v-137h-193v-174h-137v174h-193z" />
<glyph unicode="," horiz-adv-x="280" d="M45 -116l84 116h-82v194h183l11 -219l-148 -152z" />
<glyph unicode="-" horiz-adv-x="434" d="M48 211v147h339v-147h-339z" />
<glyph unicode="." horiz-adv-x="277" d="M46 0v194h185v-194h-185z" />
<glyph unicode="/" horiz-adv-x="496" d="M16 -90l326 880h137l-325 -880h-138z" />
<glyph unicode="0" horiz-adv-x="694" d="M36 350q0 172 80 266.5t232 94.5q151 0 230.5 -94.5t79.5 -266.5t-80 -266.5t-231 -94.5t-231 94.5t-80 266.5zM230 350q0 -115 29.5 -164.5t87.5 -49.5t88 49.5t30 164.5t-29.5 164t-87.5 49t-88 -49t-30 -164z" />
<glyph unicode="1" horiz-adv-x="444" d="M-7 585l203 115h183v-700h-191v525l-120 -63z" />
<glyph unicode="2" horiz-adv-x="631" d="M24 0v78q0 50 18 95t52 81.5t68 63t79 54.5q17 10 48.5 28.5t45 27t31 22t24 25t6.5 25.5q0 23 -21 38t-61 15q-72 0 -188 -66l-84 123q148 101 301 101q120 0 183.5 -57.5t63.5 -144.5q0 -40 -15 -76t-34.5 -60t-54.5 -50t-57 -38.5t-61 -33.5q-36 -19 -56 -31.5 t-37.5 -29.5t-17.5 -32h334v-158h-567z" />
<glyph unicode="3" horiz-adv-x="630" d="M9 85l84 129q123 -65 211 -65q100 0 100 63q0 25 -17.5 41.5t-50 23t-57 8.5t-58.5 2h-30v159h35q149 0 149 61q0 46 -71 46q-78 0 -186 -59l-78 119q139 98 295 98q116 0 174 -48.5t58 -123.5q0 -101 -107 -153q61 -20 99.5 -68.5t38.5 -108.5q0 -93 -64.5 -156.5 t-204.5 -63.5q-161 0 -320 96z" />
<glyph unicode="4" horiz-adv-x="703" d="M15 122v131l308 447h255v-420h105v-158h-105v-122h-192v122h-371zM209 280h177v264z" />
<glyph unicode="5" horiz-adv-x="622" d="M16 84l83 138q105 -70 187 -70q49 0 80 21t31 58q0 34 -28 58t-82 24q-60 0 -130 -36l-106 67l38 356h475v-158h-315l-5 -86q44 11 91 11q125 0 190.5 -68t65.5 -167q0 -103 -71 -173t-207 -70q-154 0 -297 95z" />
<glyph unicode="6" horiz-adv-x="648" d="M33 291q0 188 122.5 304t316.5 116q29 0 57 -2.5t41 -5.5l13 -3l-44 -149q-30 5 -66 5q-74 0 -134 -34t-90 -113q66 45 151 45q100 0 163.5 -60t63.5 -158q0 -104 -77.5 -175.5t-207.5 -71.5q-152 0 -230.5 87.5t-78.5 214.5zM227 266q1 -64 33.5 -93t76.5 -29 q50 0 74.5 25t24.5 59q0 37 -27 61t-72 24q-68 0 -110 -47z" />
<glyph unicode="7" horiz-adv-x="548" d="M19 542v158h518v-148q-10 -12 -27 -33.5t-60.5 -87t-77 -128.5t-60.5 -147.5t-27 -155.5h-197q0 83 32.5 178t81 174.5t78.5 122t51 67.5h-312z" />
<glyph unicode="8" horiz-adv-x="664" d="M25 193q0 121 148 189q-103 64 -103 155q0 78 68.5 126t193.5 48q124 0 193 -48.5t69 -125.5q0 -91 -104 -155q149 -68 149 -189q0 -95 -80 -149.5t-227 -54.5t-227 54.5t-80 149.5zM219 208q0 -33 31.5 -54.5t81.5 -21.5t81.5 21.5t31.5 54.5t-29.5 56.5t-83.5 46.5 q-54 -22 -83.5 -46t-29.5 -57zM257 518q0 -43 75 -75q75 33 75 75q0 20 -20 37.5t-55 17.5t-55 -17.5t-20 -37.5z" />
<glyph unicode="9" horiz-adv-x="649" d="M22 464q0 104 77.5 175.5t208.5 71.5q152 0 230 -87.5t78 -214.5q1 -188 -121.5 -304t-316.5 -116q-30 0 -58 2.5t-41 5.5l-13 3l45 149q29 -5 66 -5q170 0 224 147q-64 -45 -152 -45q-99 0 -163 60t-64 158zM214 472q0 -37 27 -61t72 -24q69 0 110 48q-1 62 -34 91.5 t-76 29.5q-50 0 -74.5 -25t-24.5 -59z" />
<glyph unicode=":" horiz-adv-x="290" d="M53 0v194h184v-194h-184zM53 298v194h184v-194h-184z" />
<glyph unicode=";" horiz-adv-x="294" d="M52 -116l84 116h-82v194h183l11 -219l-148 -152zM54 298v194h184v-194h-184z" />
<glyph unicode="&#x3c;" horiz-adv-x="652" d="M50 272v123l522 202v-153l-322 -111l322 -112v-151z" />
<glyph unicode="=" horiz-adv-x="652" d="M64 168v137h523v-137h-523zM64 364v137h523v-137h-523z" />
<glyph unicode="&#x3e;" horiz-adv-x="652" d="M79 70v151l320 112l-320 111v153l522 -202v-123z" />
<glyph unicode="?" horiz-adv-x="556" d="M23 629q131 82 261 82q109 0 176 -52t67 -138q0 -49 -19.5 -87t-56 -63t-74.5 -41t-88 -29l-9 -64h-112l-10 162q102 20 139 37.5t37 53.5q0 26 -20.5 44.5t-62.5 18.5q-68 0 -150 -52zM132 0v177h184v-177h-184z" />
<glyph unicode="@" horiz-adv-x="949" d="M33 253q0 193 122 313t333 120q205 0 318 -119.5t114 -312.5q0 -57 -10.5 -106t-33 -91.5t-64 -67t-99.5 -24.5q-39 0 -68.5 12.5t-46 32t-25 39t-11.5 38.5q-71 -65 -161 -65q-70 0 -114.5 41t-44.5 110q0 72 47 111.5t122 39.5q38 0 150 -21v35q0 39 -17.5 55t-60.5 16 q-74 0 -167 -38l-43 91q134 47 236 47q94 0 138 -42t44 -134v-148q0 -49 2.5 -74.5t15.5 -45.5t39 -20q47 0 80 54.5t33 158.5q0 161 -95.5 266t-277.5 105q-188 0 -291 -105.5t-103 -270.5t99 -270t264 -105q53 0 100 10t68 20l21 11l37 -47q-9 -6 -26 -14.5t-77 -22.5 t-127 -14q-187 0 -303.5 121.5t-116.5 310.5zM375 185q0 -63 69 -63q58 0 117 50v66q-78 15 -106 15q-80 0 -80 -68z" />
<glyph unicode="A" horiz-adv-x="725" d="M-2 0l258 700h212l258 -700h-209l-35 117h-240l-35 -117h-209zM286 266h151l-76 254z" />
<glyph unicode="B" horiz-adv-x="702" d="M61 0v700h307q274 0 274 -170q0 -65 -36 -106.5t-75 -48.5q22 -3 45.5 -15t48 -33t40 -57t15.5 -81q0 -90 -65.5 -139.5t-202.5 -49.5h-351zM253 146h116q121 0 121 76q0 41 -32 59t-98 18h-107v-153zM253 434h98q101 0 101 62q0 58 -100 58h-99v-120z" />
<glyph unicode="C" horiz-adv-x="659" d="M32 350q0 177 81 269t217 92q81 0 155 -26t162 -74l-88 -141q-131 69 -204 69q-61 0 -93.5 -51t-32.5 -138t32.5 -138t93.5 -51q73 0 204 69l88 -141q-88 -48 -162 -74t-155 -26q-136 0 -217 92t-81 269z" />
<glyph unicode="D" horiz-adv-x="733" d="M61 0v700h272q184 0 275.5 -83.5t91.5 -266.5t-91.5 -266.5t-275.5 -83.5h-272zM253 162h61q99 0 147 39.5t48 148.5t-48 148.5t-147 39.5h-61v-376z" />
<glyph unicode="E" horiz-adv-x="627" d="M61 0v700h524v-162h-332v-109h270v-158h-270v-109h338v-162h-530z" />
<glyph unicode="F" horiz-adv-x="599" d="M61 0v700h524v-162h-332v-109h262v-159h-262v-270h-192z" />
<glyph unicode="G" horiz-adv-x="717" d="M32 349q0 178 82.5 270t220.5 92q85 0 162.5 -26.5t168.5 -74.5l-87 -141q-142 70 -219 70q-64 0 -97.5 -50.5t-33.5 -138.5q0 -91 31.5 -145t97.5 -54q62 0 135 65v48h-147v150h327v-414h-180v60q-85 -71 -180 -71q-121 0 -201 93t-80 267z" />
<glyph unicode="H" horiz-adv-x="739" d="M61 0v700h192v-254h233v254h192v-700h-192v288h-233v-288h-192z" />
<glyph unicode="I" horiz-adv-x="314" d="M61 0v700h192v-700h-192z" />
<glyph unicode="J" horiz-adv-x="315" d="M-54 -54q44 14 67 24.5t34.5 26t13 27t1.5 40.5v636h192v-625v-43t-1.5 -37.5t-5 -34.5t-9.5 -29t-15 -27.5t-22 -23t-31 -22t-41.5 -19t-53 -18.5t-66.5 -16z" />
<glyph unicode="K" horiz-adv-x="717" d="M61 0v700h192v-295l240 295h226l-279 -329l286 -371h-227l-177 232l-69 -82v-150h-192z" />
<glyph unicode="L" horiz-adv-x="587" d="M61 0v700h192v-538h321v-162h-513z" />
<glyph unicode="M" horiz-adv-x="866" d="M61 0v700h195l177 -376l176 376h196v-700h-192v393l-130 -276h-100l-130 275v-392h-192z" />
<glyph unicode="N" horiz-adv-x="755" d="M61 0v700h194l247 -410v410h192v-700h-194l-247 408v-408h-192z" />
<glyph unicode="O" horiz-adv-x="773" d="M31 350q0 163 87.5 262t267.5 99q92 0 162 -27.5t111.5 -77t62 -114t20.5 -142.5t-20.5 -142.5t-62 -114t-111.5 -77t-162 -27.5q-180 0 -267.5 99t-87.5 262zM228 350q0 -198 158 -198t158 198t-158 198t-158 -198z" />
<glyph unicode="P" horiz-adv-x="682" d="M61 0v700h314q293 0 293 -235q0 -233 -293 -233h-122v-232h-192zM253 388h109q53 0 82.5 16.5t29.5 60.5t-29.5 60.5t-82.5 16.5h-109v-154z" />
<glyph unicode="Q" horiz-adv-x="773" d="M31 350q0 163 87.5 262t267.5 99q92 0 162 -27.5t111.5 -77t62 -114t20.5 -142.5q0 -109 -40 -191.5t-121 -126.5l107 -83l-125 -129l-177 169q-180 0 -267.5 99t-87.5 262zM228 350q0 -198 158 -198t158 198t-158 198t-158 -198z" />
<glyph unicode="R" horiz-adv-x="716" d="M61 0v700h334q151 0 223 -55t72 -168q0 -169 -166 -210l167 -267h-205l-153 254h-80v-254h-192zM253 403h129q55 0 84.5 15.5t29.5 58.5t-29 58.5t-84 15.5h-130v-148z" />
<glyph unicode="S" horiz-adv-x="652" d="M18 89l84 136q50 -29 125 -53.5t124 -24.5q34 0 56 11.5t22 33.5q0 24 -26 37t-91.5 30t-108.5 34q-170 61 -170 204q0 93 70 153.5t198 60.5q79 0 162.5 -22t148.5 -55l-85 -138q-47 21 -109 39t-104 18q-34 0 -56 -11t-22 -33q0 -24 26.5 -37t90 -28.5t105.5 -32.5 q33 -13 58 -27t54.5 -37.5t45.5 -59.5t16 -81q0 -95 -71.5 -156t-200.5 -61q-93 0 -186.5 30t-155.5 70z" />
<glyph unicode="T" horiz-adv-x="612" d="M12 538v162h587v-162h-196v-538h-192v538h-199z" />
<glyph unicode="U" horiz-adv-x="728" d="M54 300v400h192v-418q0 -63 24.5 -96.5t93.5 -33.5q68 0 93 34t25 96v418h192v-400q0 -70 -13 -122t-45.5 -97t-95.5 -68.5t-156 -23.5t-156 23.5t-95.5 68.5t-45.5 97t-13 122z" />
<glyph unicode="V" horiz-adv-x="722" d="M-4 700h224l140 -475l141 475h223l-257 -700h-213z" />
<glyph unicode="W" horiz-adv-x="989" d="M5 700h220l88 -429l107 429h151l106 -427l89 427h220l-196 -700h-187l-108 421l-108 -421h-186z" />
<glyph unicode="X" horiz-adv-x="683" d="M-7 0l230 355l-218 345h221l115 -229l116 229h221l-218 -345l230 -355h-228l-121 220l-120 -220h-228z" />
<glyph unicode="Y" horiz-adv-x="682" d="M-5 700h216l130 -257l130 257h216l-251 -424l1 -276h-192v278z" />
<glyph unicode="Z" horiz-adv-x="653" d="M26 0v146l337 392h-315v162h567v-146l-336 -392h341v-162h-594z" />
<glyph unicode="[" horiz-adv-x="375" d="M55 -143v982h307v-104h-115v-774h115v-104h-307z" />
<glyph unicode="\" horiz-adv-x="496" d="M16 790h138l325 -880h-137z" />
<glyph unicode="]" horiz-adv-x="375" d="M13 -39h115v774h-115v104h306v-982h-306v104z" />
<glyph unicode="^" horiz-adv-x="652" d="M45 313l186 387h189l186 -387h-198l-83 204l-83 -204h-197z" />
<glyph unicode="_" horiz-adv-x="712" d="M47 -65h618v-129h-618v129z" />
<glyph unicode="`" horiz-adv-x="248" d="M-39 729h199l127 -143h-150z" />
<glyph unicode="a" horiz-adv-x="609" d="M18 164q0 77 54.5 122t143.5 45q21 0 47 -2.5t44.5 -6t42.5 -7.5l30 -5v26q0 35 -17.5 48.5t-64.5 13.5q-65 0 -189 -36l-56 125q154 49 282 49q124 0 177 -48.5t53 -163.5v-324h-185v57q-76 -68 -176 -68q-84 0 -135 49.5t-51 125.5zM204 181q0 -52 62 -52t114 43v51 q-65 13 -102 13q-74 0 -74 -55z" />
<glyph unicode="b" d="M49 0v729h185v-256q77 63 169 63q96 0 152 -71t56 -203q0 -131 -56 -202t-152 -71q-91 0 -169 61v-50h-185zM234 192q48 -56 108 -56q82 0 82 127q0 126 -82 126q-59 0 -108 -57v-140z" />
<glyph unicode="c" horiz-adv-x="524" d="M25 263q0 135 71 204t176 69q100 0 241 -61l-72 -136q-92 40 -137 40q-44 0 -67.5 -31.5t-23.5 -84.5t23.5 -85t67.5 -32q45 0 137 40l72 -136q-135 -61 -241 -61q-105 0 -176 69t-71 205z" />
<glyph unicode="d" d="M26 262q0 132 55.5 203t151.5 71q92 0 169 -63v256h185v-729h-185v50q-78 -61 -169 -61q-96 0 -151.5 71t-55.5 202zM212 263q0 -127 82 -127q60 0 108 56v140q-49 57 -108 57q-82 0 -82 -126z" />
<glyph unicode="e" horiz-adv-x="587" d="M25 260q0 130 72 203t202 73q128 0 195.5 -64.5t67.5 -170.5q0 -20 -2.5 -39t-5.5 -28l-2 -10h-338q10 -100 94 -100q70 0 191 59l66 -113q-154 -81 -277 -81q-117 0 -190 68t-73 203zM215 319h167q-2 88 -81 88q-72 0 -86 -88z" />
<glyph unicode="f" horiz-adv-x="404" d="M15 391v134h72q1 103 43 153.5t131 50.5q91 0 193 -46l-61 -123q-53 19 -81 19q-12 0 -19.5 -2t-15 -13t-7.5 -31v-8h125v-134h-125v-391h-183v391h-72z" />
<glyph unicode="g" d="M26 262q0 132 55.5 203t151.5 71q92 0 169 -63v52h185v-508q0 -117 -59 -174t-186 -57q-140 0 -293 45l35 144q139 -42 218 -42q58 0 79 16.5t21 57.5v43q-78 -61 -169 -61q-96 0 -151.5 71t-55.5 202zM212 263q0 -127 82 -127q60 0 108 56v140q-49 57 -108 57 q-82 0 -82 -126z" />
<glyph unicode="h" d="M49 0v729h185v-259q100 66 195 66q163 0 163 -168v-368h-185v324q0 70 -54 70q-62 0 -119 -55v-339h-185z" />
<glyph unicode="i" horiz-adv-x="283" d="M46 582v144h192v-144h-192zM49 0v525h185v-525h-185z" />
<glyph unicode="j" horiz-adv-x="283" d="M-67 -102q45 15 67.5 25t34 25.5t13 28.5t1.5 44v504h185v-489q0 -41 -0.5 -60t-5 -49t-13.5 -44.5t-26 -34.5t-43 -32t-64 -25.5t-90 -24.5zM45 582v144h192v-144h-192z" />
<glyph unicode="k" horiz-adv-x="599" d="M49 0v729h185v-380l137 176h210l-177 -207l207 -318h-194l-124 189l-59 -69v-120h-185z" />
<glyph unicode="l" horiz-adv-x="285" d="M50 0v729h185v-729h-185z" />
<glyph unicode="m" horiz-adv-x="943" d="M49 0v525h185v-60q84 71 171 71q113 0 146 -85q87 85 186 85q161 0 161 -168v-368h-185v324q0 35 -9.5 52.5t-38.5 17.5q-50 0 -100 -56v-338h-183v324q0 35 -10 52.5t-40 17.5q-49 0 -98 -53v-341h-185z" />
<glyph unicode="n" d="M49 0v525h185v-55q100 66 195 66q163 0 163 -168v-368h-185v324q0 70 -54 70q-62 0 -119 -55v-339h-185z" />
<glyph unicode="o" horiz-adv-x="625" d="M25 263q0 131 74.5 202t213.5 71q138 0 212.5 -71.5t74.5 -202.5t-74.5 -202t-212.5 -71q-139 0 -213.5 71.5t-74.5 202.5zM211 263q0 -134 102 -134q101 0 101 133q0 134 -101 134q-102 0 -102 -133z" />
<glyph unicode="p" d="M49 -204v729h185v-52q77 63 169 63q96 0 152 -71t56 -203q0 -131 -56 -202t-152 -71q-91 0 -169 61v-254h-185zM234 192q48 -56 108 -56q82 0 82 127q0 126 -82 126q-59 0 -108 -57v-140z" />
<glyph unicode="q" d="M26 262q0 132 55.5 203t151.5 71q92 0 169 -63v52h185v-729h-185v254q-78 -61 -169 -61q-96 0 -151.5 71t-55.5 202zM212 263q0 -127 82 -127q60 0 108 56v140q-49 57 -108 57q-82 0 -82 -126z" />
<glyph unicode="r" horiz-adv-x="442" d="M49 0v525h185v-108q7 17 18.5 33.5t33.5 38t59.5 33.5t83.5 9v-173q-49 0 -87.5 -17.5t-57.5 -42t-31.5 -49.5t-15.5 -43l-3 -17v-189h-185z" />
<glyph unicode="s" horiz-adv-x="547" d="M16 59l70 129q46 -23 111 -41.5t106 -18.5q42 0 42 19q0 7 -7 13t-23 11.5t-28.5 8.5t-39 9t-38.5 9q-182 46 -182 174q0 72 56 118t161 46q68 0 140.5 -18t123.5 -41l-70 -119q-108 41 -183 41q-43 0 -43 -20q0 -8 6 -13.5t21 -10.5t27.5 -8.5t38 -9t40.5 -9.5 q38 -10 67 -21.5t58 -31.5t45 -50.5t16 -70.5q0 -76 -58 -120.5t-166 -44.5q-77 0 -158 21t-133 49z" />
<glyph unicode="t" horiz-adv-x="446" d="M19 391v134h72v132l183 20v-152h142v-134h-142v-196q0 -20 7.5 -31t15 -13t19.5 -2q23 0 71 22l64 -136q-100 -46 -186 -46q-90 0 -132 51t-42 156v195h-72z" />
<glyph unicode="u" d="M45 157v368h185v-324q0 -34 11.5 -52t42.5 -18q61 0 119 54v340h184v-525h-184v55q-99 -66 -196 -66q-162 0 -162 168z" />
<glyph unicode="v" horiz-adv-x="599" d="M1 525h198l99 -325l101 325h198l-207 -525h-182z" />
<glyph unicode="w" horiz-adv-x="856" d="M6 525h196l67 -323l86 323h148l86 -323l67 323h195l-161 -525h-171l-90 305l-90 -305h-172z" />
<glyph unicode="x" horiz-adv-x="619" d="M-8 0l202 262l-190 263h208l96 -153l97 153h209l-191 -262l203 -263h-216l-102 158l-100 -158h-216z" />
<glyph unicode="y" horiz-adv-x="599" d="M2 525h198l100 -303l99 303h199l-286 -729h-197l91 205z" />
<glyph unicode="z" horiz-adv-x="580" d="M27 0v126l258 248h-248v151h511v-126l-257 -248h257v-151h-521z" />
<glyph unicode="{" horiz-adv-x="395" d="M0 296v104q60 0 81 28t14 78l-12 93q-16 123 60 181.5t219 58.5h18v-100h-18q-39 0 -61 -21.5t-26 -47.5t0 -58l9 -71q10 -90 -27 -134.5t-122 -58.5q85 -14 122 -58.5t27 -134.5l-9 -71q-4 -32 0 -58.5t26 -47.5t61 -21h18v-100h-18q-143 0 -219.5 59t-59.5 181l13 93 q14 106 -96 106z" />
<glyph unicode="|" horiz-adv-x="245" d="M56 -123v941h134v-941h-134z" />
<glyph unicode="}" horiz-adv-x="395" d="M15 -43h18q57 0 75 37.5t11 89.5l-8 71q-12 90 25.5 134.5t122.5 58.5q-85 14 -122.5 58.5t-25.5 134.5l8 71q7 51 -11 89t-75 38h-18v100h18q143 0 218.5 -58.5t59.5 -181.5l-12 -93q-14 -106 96 -106v-104q-60 0 -81 -28t-14 -78l12 -93q16 -123 -60 -181.5t-219 -58.5 h-18v100z" />
<glyph unicode="~" horiz-adv-x="652" d="M15 211q33 82 79 127.5t114 45.5q53 0 127 -37t110 -37q24 0 44 13.5t43 52.5l104 -42q-69 -173 -194 -173q-49 0 -125 37t-112 37q-24 0 -43 -13.5t-43 -52.5z" />
<glyph unicode="&#xa1;" horiz-adv-x="294" d="M35 0l57 463h110l58 -463h-225zM55 523v177h184v-177h-184z" />
<glyph unicode="&#xa2;" horiz-adv-x="564" d="M33 351q0 127 63 195.5t160 76.5v77h131v-90q67 -16 147 -51l-72 -136q-103 44 -150 44q-44 0 -67.5 -31.5t-23.5 -84.5t23.5 -85t67.5 -32q53 0 150 44l72 -136q-75 -35 -147 -52v-90h-131v78q-97 8 -160 77t-63 196z" />
<glyph unicode="&#xa3;" horiz-adv-x="594" d="M41 0v128q4 1 11.5 3t26 11t33.5 21t29 33.5t17 46.5h-106v106h81q-4 7 -17.5 30t-20 35.5t-15 33t-12.5 41.5t-4 44q0 84 57.5 131t162.5 47q58 0 118 -18t88.5 -33t73.5 -42l-82 -122q-100 57 -159 57q-67 0 -67 -51q0 -27 31 -78.5t40 -74.5h161v-106h-152 q-12 -58 -56 -85h273v-158h-512z" />
<glyph unicode="&#xa5;" horiz-adv-x="736" d="M22 700h216l130 -256l130 256h216l-189 -318h112v-104h-174v-44h174v-104h-174l1 -130h-192v130h-173v104h173v44h-173v104h111z" />
<glyph unicode="&#xa6;" horiz-adv-x="247" d="M57 -123v413h134v-413h-134zM57 405v413h134v-413h-134z" />
<glyph unicode="&#xa7;" horiz-adv-x="588" d="M32 308q0 81 78 119q-60 47 -60 120q0 72 57 118t162 46q133 0 262 -59l-70 -119q-39 15 -94 28t-89 13q-43 0 -43 -21q0 -7 6.5 -13t20.5 -10.5t27.5 -8t38.5 -9t42 -9.5q186 -44 186 -172q0 -80 -78 -120q59 -46 59 -119q0 -72 -56.5 -118t-161.5 -46q-134 0 -263 59 l70 119q40 -15 94.5 -28t88.5 -13q43 0 43 20q0 8 -6.5 14t-20.5 10.5t-27.5 7.5t-38 8.5t-40.5 9.5q-187 48 -187 173zM208 327q0 -5 2 -9.5t7 -8.5t10 -7.5t14 -6.5t15.5 -5.5t18 -5.5t18.5 -4.5t19.5 -4.5t18.5 -4q49 12 49 41q0 19 -29 30t-85 23q-7 1 -10 2 q-26 -5 -37 -17t-11 -23z" />
<glyph unicode="&#xa8;" horiz-adv-x="259" d="M-34 596v130h138v-130h-138zM156 596v130h137v-130h-137z" />
<glyph unicode="&#xa9;" horiz-adv-x="780" d="M34 350q0 157 95 259t262 102t261.5 -102t94.5 -259t-94.5 -259t-261.5 -102t-262 102t-95 259zM74 350q0 -141 84 -232t232 -91q149 0 233.5 91t84.5 232t-84.5 232t-233.5 91q-148 0 -232 -91t-84 -232zM210 349q0 104 50 161t124 57q79 0 167 -62l-31 -36 q-69 54 -134 54q-56 0 -90 -47.5t-34 -126.5q0 -78 34 -125t90 -47q64 0 134 52l31 -35q-88 -62 -167 -62q-74 0 -124 57t-50 160z" />
<glyph unicode="&#xaa;" horiz-adv-x="418" d="M24 484q0 46 34.5 73.5t92.5 27.5q33 0 101 -13v12q0 18 -11 24.5t-38 6.5q-47 0 -120 -20l-37 82q101 30 181 30t114.5 -30.5t34.5 -101.5v-190h-124v32q-48 -39 -110 -39q-54 0 -86 31t-32 75zM149 496q0 -25 36 -25q38 0 67 21v22q-43 8 -60 8q-43 0 -43 -26z" />
<glyph unicode="&#xab;" horiz-adv-x="680" d="M23 211v109l304 206v-169l-149 -91l149 -91v-170zM328 211v109l305 206v-169l-149 -91l149 -91v-170z" />
<glyph unicode="&#xac;" horiz-adv-x="652" d="M20 265v137h597v-312h-146v175h-451z" />
<glyph unicode="&#xad;" horiz-adv-x="434" d="M48 211v147h339v-147h-339z" />
<glyph unicode="&#xae;" horiz-adv-x="460" d="M32 500q0 87 53 143.5t145 56.5t144.5 -56.5t52.5 -143.5t-52.5 -143.5t-144.5 -56.5t-145 56.5t-53 143.5zM68 500q0 -74 41.5 -120.5t120.5 -46.5t120 46.5t41 120.5t-41 120.5t-120 46.5t-120.5 -46.5t-41.5 -120.5zM156 402v201h93q31 0 49.5 -16t18.5 -42 q0 -20 -14 -35.5t-36 -20.5l47 -87h-37l-44 85h-44v-85h-33zM189 518h59q35 0 35 27q0 28 -33 28h-61v-55z" />
<glyph unicode="&#xaf;" horiz-adv-x="317" d="M0 611v105h317v-105h-317z" />
<glyph unicode="&#xb0;" horiz-adv-x="411" d="M22 518q0 76 54 130t130 54t130 -54t54 -130t-54 -130t-130 -54t-130 54t-54 130zM127 518q0 -33 23 -56t56 -23t56.5 23t23.5 56t-23.5 56.5t-56.5 23.5t-56 -23.5t-23 -56.5z" />
<glyph unicode="&#xb1;" horiz-adv-x="652" d="M64 0v116h523v-116h-523zM64 290v137h191v124h138v-124h194v-137h-194v-123h-138v123h-191z" />
<glyph unicode="&#xb2;" horiz-adv-x="416" d="M21 385v49q0 97 136 177q12 7 30.5 16.5t28 15t20 12.5t15 13t4.5 13q0 11 -12.5 18.5t-35.5 7.5q-41 0 -118 -40l-56 81q101 64 194 64q77 0 117.5 -35.5t40.5 -88.5q0 -30 -12 -55t-36 -44t-42.5 -29.5t-47.5 -24.5q-68 -30 -68 -45h206v-105h-364z" />
<glyph unicode="&#xb3;" horiz-adv-x="411" d="M9 439l56 85q75 -40 134 -40q57 0 57 30q0 14 -10 22t-32 11t-32.5 3.5t-36.5 0.5h-21v105h24q91 0 91 30q0 21 -41 21q-51 0 -118 -36l-51 79q81 62 191 62q74 0 110.5 -29.5t36.5 -75.5q0 -61 -66 -90q37 -12 61 -41t24 -64q0 -56 -40 -95t-130 -39q-100 0 -207 61z " />
<glyph unicode="&#xb4;" horiz-adv-x="248" d="M-39 586l127 143h199l-176 -143h-150z" />
<glyph unicode="&#xb5;" horiz-adv-x="641" d="M56 -204v729h185v-333q2 -61 54 -61q61 0 119 54v340h184v-525h-184v55q-91 -58 -173 -65v-194h-185z" />
<glyph unicode="&#xb6;" horiz-adv-x="758" d="M25 446q0 130 78.5 192t212.5 62h152v-885h-154v376q-125 0 -207 63t-82 192zM535 -186v886h154v-886h-154z" />
<glyph unicode="&#xb7;" horiz-adv-x="280" d="M48 188v194h185v-194h-185z" />
<glyph unicode="&#xb8;" horiz-adv-x="190" d="M-13 -167l35 86q22 -11 46 -11q43 0 43 32q0 12 -6.5 27.5t-13.5 24.5l-7 10h79q40 -44 40 -95q0 -49 -34.5 -73t-87.5 -24q-55 0 -94 23z" />
<glyph unicode="&#xb9;" horiz-adv-x="302" d="M-2 734l130 71h123v-420h-128v304l-75 -37z" />
<glyph unicode="&#xba;" horiz-adv-x="416" d="M24 543q0 78 47.5 121t136.5 43q88 0 135.5 -43t47.5 -122t-47.5 -121.5t-135.5 -42.5t-136 43t-48 122zM148 543q0 -72 60 -72q59 0 59 71q0 72 -59 72q-60 0 -60 -71z" />
<glyph unicode="&#xbb;" horiz-adv-x="680" d="M47 5v171l147 90l-147 91v168l304 -205v-109zM353 5v171l147 90l-147 91v168l304 -205v-109z" />
<glyph unicode="&#xbc;" horiz-adv-x="934" d="M19 629l131 71h122v-420h-128v304l-75 -37zM190 0l327 700h137l-326 -700h-138zM470 69v87l192 264h171v-246h66v-105h-66v-69h-130v69h-233zM601 174h102v146z" />
<glyph unicode="&#xbd;" horiz-adv-x="934" d="M19 629l131 71h122v-420h-128v304l-75 -37zM190 0l327 700h137l-326 -700h-138zM528 0v49q0 97 136 177q12 7 30.5 16.5t28 15t19.5 12.5t14.5 13t4.5 13q0 11 -12 18.5t-35 7.5q-44 0 -118 -40l-56 81q98 64 193 64q77 0 117.5 -35.5t40.5 -88.5q0 -30 -12 -55t-36 -44 t-42.5 -29.5t-47.5 -24.5q-67 -30 -67 -45h205v-105h-363z" />
<glyph unicode="&#xbe;" horiz-adv-x="1016" d="M24 334l56 85q74 -40 134 -40q57 0 57 30q0 14 -10 22t-32.5 11t-33 3.5t-36.5 0.5h-20v105h23q20 0 29.5 0.5t27.5 3t26.5 9t8.5 17.5q0 21 -41 21q-51 0 -118 -36l-51 79q81 62 190 62q75 0 111.5 -29.5t36.5 -75.5q0 -61 -66 -90q37 -12 61 -41t24 -64 q0 -56 -40.5 -95t-130.5 -39q-99 0 -206 61zM277 0l326 700h138l-327 -700h-137zM556 69v87l192 264h170v-246h67v-105h-67v-69h-128v69h-234zM688 174h102v146z" />
<glyph unicode="&#xbf;" horiz-adv-x="556" d="M30 179q0 49 19.5 87t56 63t74.5 41t88 29l8 64h114l9 -162q-101 -20 -138.5 -38t-37.5 -53q0 -26 20.5 -44.5t62.5 -18.5q68 0 150 52l77 -129q-134 -81 -261 -81q-108 0 -175 52t-67 138zM241 523v177h184v-177h-184z" />
<glyph unicode="&#xc0;" horiz-adv-x="725" d="M-2 0l258 700h212l258 -700h-209l-35 117h-240l-35 -117h-209zM154 880h199l127 -143h-150zM286 266h151l-76 254z" />
<glyph unicode="&#xc1;" horiz-adv-x="725" d="M-2 0l258 700h212l258 -700h-209l-35 117h-240l-35 -117h-209zM245 737l126 143h199l-174 -143h-151zM286 266h151l-76 254z" />
<glyph unicode="&#xc2;" horiz-adv-x="725" d="M-2 0l258 700h212l258 -700h-209l-35 117h-240l-35 -117h-209zM168 737l109 143h170l110 -143h-125l-70 67l-70 -67h-124zM286 266h151l-76 254z" />
<glyph unicode="&#xc3;" horiz-adv-x="725" d="M-2 0l258 700h212l258 -700h-209l-35 117h-240l-35 -117h-209zM160 779q36 70 58 90q28 27 65 27q31 0 83 -23.5t65 -23.5q27 0 52 46l79 -39q-15 -30 -23 -43.5t-23.5 -34.5t-34.5 -30t-42 -9q-31 0 -83 23.5t-65 23.5q-27 0 -52 -46zM286 266h151l-76 254z" />
<glyph unicode="&#xc4;" horiz-adv-x="725" d="M-2 0l258 700h212l258 -700h-209l-35 117h-240l-35 -117h-209zM199 752v129h138v-129h-138zM286 266h151l-76 254zM389 752v129h138v-129h-138z" />
<glyph unicode="&#xc5;" horiz-adv-x="725" d="M-2 0l258 700h212l258 -700h-209l-35 117h-240l-35 -117h-209zM246 845q0 48 34.5 82.5t82.5 34.5q49 0 83.5 -34.5t34.5 -82.5q0 -49 -34.5 -83.5t-83.5 -34.5q-48 0 -82.5 34.5t-34.5 83.5zM286 266h151l-76 254zM330 845q0 -14 9.5 -24t23.5 -10t24 10t10 24t-10 23.5 t-24 9.5q-13 0 -23 -10t-10 -23z" />
<glyph unicode="&#xc6;" horiz-adv-x="1097" d="M-37 0l471 700h622v-162h-333v-109h272v-158h-272v-109h339v-162h-531v117h-264l-74 -117h-230zM364 271h167v263z" />
<glyph unicode="&#xc7;" horiz-adv-x="659" d="M32 350q0 177 81 269t217 92q81 0 155 -26t162 -74l-88 -141q-131 69 -204 69q-61 0 -93.5 -51t-32.5 -138t32.5 -138t93.5 -51q73 0 204 69l88 -141q-150 -83 -262 -96q32 -44 32 -86q0 -49 -34.5 -73t-87.5 -24q-56 0 -94 23l34 86q23 -11 46 -11q44 0 44 32 q0 22 -19 50q-126 8 -200 99.5t-74 260.5z" />
<glyph unicode="&#xc8;" horiz-adv-x="627" d="M61 0v700h524v-162h-332v-109h270v-158h-270v-109h338v-162h-530zM119 880h198l127 -143h-151z" />
<glyph unicode="&#xc9;" horiz-adv-x="627" d="M61 0v700h524v-162h-332v-109h270v-158h-270v-109h338v-162h-530zM209 737l127 143h198l-175 -143h-150z" />
<glyph unicode="&#xca;" horiz-adv-x="627" d="M61 0v700h524v-162h-332v-109h270v-158h-270v-109h338v-162h-530zM131 737l110 143h169l110 -143h-124l-70 67l-70 -67h-125z" />
<glyph unicode="&#xcb;" horiz-adv-x="627" d="M61 0v700h524v-162h-332v-109h270v-158h-270v-109h338v-162h-530zM162 747v130h138v-130h-138zM352 747v130h138v-130h-138z" />
<glyph unicode="&#xcc;" horiz-adv-x="314" d="M-51 880h199l126 -143h-150zM62 0v700h191v-700h-191z" />
<glyph unicode="&#xcd;" horiz-adv-x="314" d="M40 737l127 143h199l-176 -143h-150zM61 0v700h192v-700h-192z" />
<glyph unicode="&#xce;" horiz-adv-x="314" d="M-38 737l110 143h170l110 -143h-125l-70 67l-70 -67h-125zM61 0v700h192v-700h-192z" />
<glyph unicode="&#xcf;" horiz-adv-x="314" d="M-7 746v129h138v-129h-138zM60 0v700h192v-700h-192zM182 746v129h138v-129h-138z" />
<glyph unicode="&#xd0;" horiz-adv-x="752" d="M7 277v146h73v277h272q183 0 274.5 -83.5t91.5 -266.5t-91.5 -266.5t-274.5 -83.5h-272v277h-73zM273 162h60q99 0 147 39.5t48 148.5t-48 148.5t-147 39.5h-60v-115h130v-146h-130v-115z" />
<glyph unicode="&#xd1;" horiz-adv-x="755" d="M61 0v700h194l247 -410v410h192v-700h-194l-247 408v-408h-192zM181 788q36 70 58 90q28 27 65 27q32 0 83 -23.5t65 -23.5q27 0 52 46l79 -39q-15 -30 -22.5 -43.5t-23.5 -35t-35 -30.5t-42 -9q-32 0 -83 24t-65 24q-26 0 -53 -46z" />
<glyph unicode="&#xd2;" horiz-adv-x="773" d="M31 350q0 163 87.5 262t267.5 99q92 0 162 -27.5t111.5 -77t62 -114t20.5 -142.5t-20.5 -142.5t-62 -114t-111.5 -77t-162 -27.5q-180 0 -267.5 99t-87.5 262zM178 880h199l126 -143h-149zM228 350q0 -198 158 -198t158 198t-158 198t-158 -198z" />
<glyph unicode="&#xd3;" horiz-adv-x="773" d="M31 350q0 163 87.5 262t267.5 99q92 0 162 -27.5t111.5 -77t62 -114t20.5 -142.5t-20.5 -142.5t-62 -114t-111.5 -77t-162 -27.5q-180 0 -267.5 99t-87.5 262zM228 350q0 -198 158 -198t158 198t-158 198t-158 -198zM269 737l126 143h199l-174 -143h-151z" />
<glyph unicode="&#xd4;" horiz-adv-x="773" d="M31 350q0 163 87.5 262t267.5 99q92 0 162 -27.5t111.5 -77t62 -114t20.5 -142.5t-20.5 -142.5t-62 -114t-111.5 -77t-162 -27.5q-180 0 -267.5 99t-87.5 262zM192 737l110 143h169l110 -143h-125l-70 67l-70 -67h-124zM228 350q0 -198 158 -198t158 198t-158 198 t-158 -198z" />
<glyph unicode="&#xd5;" horiz-adv-x="773" d="M31 350q0 163 87.5 262t267.5 99q92 0 162 -27.5t111.5 -77t62 -114t20.5 -142.5t-20.5 -142.5t-62 -114t-111.5 -77t-162 -27.5q-180 0 -267.5 99t-87.5 262zM184 779q36 70 58 90q28 27 65 27q31 0 83 -23.5t65 -23.5q27 0 52 46l79 -39q-15 -30 -23 -43.5t-23.5 -34.5 t-34.5 -30t-42 -9q-31 0 -82.5 23.5t-65.5 23.5q-27 0 -53 -46zM228 350q0 -198 158 -198t158 198t-158 198t-158 -198z" />
<glyph unicode="&#xd6;" horiz-adv-x="773" d="M31 350q0 163 87.5 262t267.5 99q92 0 162 -27.5t111.5 -77t62 -114t20.5 -142.5t-20.5 -142.5t-62 -114t-111.5 -77t-162 -27.5q-180 0 -267.5 99t-87.5 262zM223 747v130h138v-130h-138zM228 350q0 -198 158 -198t158 198t-158 198t-158 -198zM413 747v130h137v-130 h-137z" />
<glyph unicode="&#xd7;" horiz-adv-x="652" d="M91 458l100 100l134 -125l134 124l102 -100l-130 -121l131 -121l-101 -100l-134 124l-133 -123l-102 101l129 120z" />
<glyph unicode="&#xd8;" horiz-adv-x="773" d="M31 350q0 163 87.5 262t267.5 99q111 0 190 -41l24 30h130l-73 -92q84 -94 84 -258q0 -163 -87.5 -262t-267.5 -99q-113 0 -191 40l-23 -29h-129l72 91q-84 94 -84 259zM228 350q0 -59 14 -100l223 280q-33 18 -79 18q-158 0 -158 -198zM307 169q32 -17 79 -17 q158 0 158 198q0 54 -14 99z" />
<glyph unicode="&#xd9;" horiz-adv-x="728" d="M54 300v400h192v-418q0 -63 24.5 -96.5t93.5 -33.5q68 0 93 34t25 96v418h192v-400q0 -70 -13 -122t-45.5 -97t-95.5 -68.5t-156 -23.5t-156 23.5t-95.5 68.5t-45.5 97t-13 122zM156 880h199l126 -143h-149z" />
<glyph unicode="&#xda;" horiz-adv-x="728" d="M54 300v400h192v-418q0 -63 24.5 -96.5t93.5 -33.5q68 0 93 34t25 96v418h192v-400q0 -70 -13 -122t-45.5 -97t-95.5 -68.5t-156 -23.5t-156 23.5t-95.5 68.5t-45.5 97t-13 122zM247 737l126 143h199l-175 -143h-150z" />
<glyph unicode="&#xdb;" horiz-adv-x="728" d="M54 300v400h192v-418q0 -63 24.5 -96.5t93.5 -33.5q68 0 93 34t25 96v418h192v-400q0 -70 -13 -122t-45.5 -97t-95.5 -68.5t-156 -23.5t-156 23.5t-95.5 68.5t-45.5 97t-13 122zM170 737l109 143h170l110 -143h-125l-70 67l-71 -67h-123z" />
<glyph unicode="&#xdc;" horiz-adv-x="728" d="M54 300v400h192v-418q0 -63 24.5 -96.5t93.5 -33.5q68 0 93 34t25 96v418h192v-400q0 -70 -13 -122t-45.5 -97t-95.5 -68.5t-156 -23.5t-156 23.5t-95.5 68.5t-45.5 97t-13 122zM201 747v130h137v-130h-137zM390 747v130h138v-130h-138z" />
<glyph unicode="&#xdd;" horiz-adv-x="682" d="M-5 700h216l130 -257l130 257h216l-251 -424l1 -276h-192v278zM225 737l126 143h199l-176 -143h-149z" />
<glyph unicode="&#xde;" horiz-adv-x="689" d="M61 0v700h192v-104h122q293 0 293 -235q0 -233 -293 -233h-122v-128h-192zM253 284h83q74 0 106 16t32 61t-32 61t-106 16h-83v-154z" />
<glyph unicode="&#xdf;" horiz-adv-x="756" d="M49 0v478q0 45 16 84t52 74t104 55t161 20q76 0 135.5 -14t96 -36.5t60 -53t32.5 -61.5t9 -65v-4l-76 -117q-28 13 -73.5 25.5t-70.5 12.5q-35 0 -35 -21q0 -5 2.5 -9t8.5 -8t12 -6.5t17 -6t19.5 -6t23.5 -6.5t25 -7q32 -10 57 -21t53 -31.5t43.5 -52t15.5 -72.5 q0 -74 -51.5 -118t-151.5 -44q-71 0 -146 21t-123 49l70 129q37 -21 94.5 -40t86.5 -19q35 0 35 20q0 6 -4.5 11t-16 9.5t-22 8t-32 10t-36.5 11.5q-35 11 -59 22.5t-51.5 31.5t-41.5 50t-14 69q0 73 50.5 118.5t148.5 45.5q11 0 37 -2q-34 37 -128 37q-50 0 -81.5 -9 t-45 -27.5t-17.5 -35t-4 -42.5v-457h-185z" />
<glyph unicode="&#xe0;" horiz-adv-x="609" d="M18 164q0 77 54.5 122t143.5 45q21 0 47 -2.5t44.5 -6t42.5 -7.5l30 -5v26q0 35 -17.5 48.5t-64.5 13.5q-65 0 -189 -36l-56 125q154 49 282 49q124 0 177 -48.5t53 -163.5v-324h-185v57q-76 -68 -176 -68q-84 0 -135 49.5t-51 125.5zM102 729h198l127 -143h-151z M204 181q0 -52 62 -52t114 43v51q-65 13 -102 13q-74 0 -74 -55z" />
<glyph unicode="&#xe1;" horiz-adv-x="609" d="M18 164q0 77 54.5 122t143.5 45q21 0 47 -2.5t44.5 -6t42.5 -7.5l30 -5v26q0 35 -17.5 48.5t-64.5 13.5q-65 0 -189 -36l-56 125q154 49 282 49q124 0 177 -48.5t53 -163.5v-324h-185v57q-76 -68 -176 -68q-84 0 -135 49.5t-51 125.5zM192 586l126 143h199l-175 -143 h-150zM204 181q0 -52 62 -52t114 43v51q-65 13 -102 13q-74 0 -74 -55z" />
<glyph unicode="&#xe2;" horiz-adv-x="609" d="M18 164q0 77 54.5 122t143.5 45q21 0 47 -2.5t44.5 -6t42.5 -7.5l30 -5v26q0 35 -17.5 48.5t-64.5 13.5q-65 0 -189 -36l-56 125q154 49 282 49q124 0 177 -48.5t53 -163.5v-324h-185v57q-76 -68 -176 -68q-84 0 -135 49.5t-51 125.5zM114 586l110 143h170l109 -143h-125 l-70 67l-69 -67h-125zM204 181q0 -52 62 -52t114 43v51q-65 13 -102 13q-74 0 -74 -55z" />
<glyph unicode="&#xe3;" horiz-adv-x="609" d="M18 164q0 77 54.5 122t143.5 45q21 0 47 -2.5t44.5 -6t42.5 -7.5l30 -5v26q0 35 -17.5 48.5t-64.5 13.5q-65 0 -189 -36l-56 125q154 49 282 49q124 0 177 -48.5t53 -163.5v-324h-185v57q-76 -68 -176 -68q-84 0 -135 49.5t-51 125.5zM108 628q36 70 58 90q28 27 65 27 q31 0 83 -23.5t65 -23.5q27 0 52 46l79 -39q-15 -30 -23 -43.5t-23.5 -34.5t-34.5 -30t-42 -9q-31 0 -82.5 23.5t-65.5 23.5q-27 0 -53 -46zM204 181q0 -52 62 -52t114 43v51q-65 13 -102 13q-74 0 -74 -55z" />
<glyph unicode="&#xe4;" horiz-adv-x="609" d="M18 164q0 77 54.5 122t143.5 45q21 0 47 -2.5t44.5 -6t42.5 -7.5l30 -5v26q0 35 -17.5 48.5t-64.5 13.5q-65 0 -189 -36l-56 125q154 49 282 49q124 0 177 -48.5t53 -163.5v-324h-185v57q-76 -68 -176 -68q-84 0 -135 49.5t-51 125.5zM145 596v130h138v-130h-138z M204 181q0 -52 62 -52t114 43v51q-65 13 -102 13q-74 0 -74 -55zM335 596v130h138v-130h-138z" />
<glyph unicode="&#xe5;" horiz-adv-x="609" d="M18 164q0 77 54.5 122t143.5 45q21 0 47 -2.5t44.5 -6t42.5 -7.5l30 -5v26q0 35 -17.5 48.5t-64.5 13.5q-65 0 -189 -36l-56 125q154 49 282 49q124 0 177 -48.5t53 -163.5v-324h-185v57q-76 -68 -176 -68q-84 0 -135 49.5t-51 125.5zM192 694q0 48 34.5 82.5t82.5 34.5 q49 0 83.5 -34.5t34.5 -82.5q0 -49 -34.5 -83.5t-83.5 -34.5q-48 0 -82.5 34.5t-34.5 83.5zM204 181q0 -52 62 -52t114 43v51q-65 13 -102 13q-74 0 -74 -55zM276 694q0 -14 9.5 -24t23.5 -10t24 10t10 24t-10 23.5t-24 9.5q-13 0 -23 -9.5t-10 -23.5z" />
<glyph unicode="&#xe6;" horiz-adv-x="932" d="M18 164q0 77 54.5 122t143.5 45q54 0 156 -21q1 14 7 40q-3 27 -21 37.5t-60 10.5q-65 0 -189 -36l-56 125q154 49 282 49q105 0 158 -34q63 34 150 34q128 0 195.5 -64.5t67.5 -170.5q0 -20 -2.5 -39t-5.5 -28l-2 -10h-338q6 -51 28.5 -75.5t65.5 -24.5q69 0 192 59 l64 -113q-150 -81 -276 -81q-150 0 -218 101q-92 -101 -210 -101q-84 0 -135 49.5t-51 125.5zM204 181q0 -52 62 -52q59 0 113 42q-7 27 -8 51q-61 14 -93 14q-74 0 -74 -55zM559 319h166q-2 88 -81 88q-71 0 -85 -88z" />
<glyph unicode="&#xe7;" horiz-adv-x="525" d="M25 263q0 135 71 204t176 69q100 0 241 -61l-72 -136q-92 40 -137 40q-44 0 -67.5 -31.5t-23.5 -84.5t23.5 -85t67.5 -32q45 0 137 40l72 -136q-109 -50 -203 -59q31 -39 31 -84q0 -49 -34.5 -73t-87.5 -24q-55 0 -94 23l35 86q22 -11 46 -11q44 0 44 32q0 24 -21 52 q-89 13 -146.5 81.5t-57.5 189.5z" />
<glyph unicode="&#xe8;" horiz-adv-x="587" d="M25 260q0 130 72 203t202 73q128 0 195.5 -64.5t67.5 -170.5q0 -20 -2.5 -39t-5.5 -28l-2 -10h-338q10 -100 94 -100q70 0 191 59l66 -113q-154 -81 -277 -81q-117 0 -190 68t-73 203zM97 729h199l126 -143h-150zM215 319h167q-2 88 -81 88q-72 0 -86 -88z" />
<glyph unicode="&#xe9;" horiz-adv-x="587" d="M25 260q0 130 72 203t202 73q128 0 195.5 -64.5t67.5 -170.5q0 -20 -2.5 -39t-5.5 -28l-2 -10h-338q10 -100 94 -100q70 0 191 59l66 -113q-154 -81 -277 -81q-117 0 -190 68t-73 203zM188 586l125 143h200l-175 -143h-150zM215 319h167q-2 88 -81 88q-72 0 -86 -88z" />
<glyph unicode="&#xea;" horiz-adv-x="587" d="M25 260q0 130 72 203t202 73q128 0 195.5 -64.5t67.5 -170.5q0 -20 -2.5 -39t-5.5 -28l-2 -10h-338q10 -100 94 -100q70 0 191 59l66 -113q-154 -81 -277 -81q-117 0 -190 68t-73 203zM110 586l110 143h169l110 -143h-125l-70 67l-69 -67h-125zM215 319h167q-2 88 -81 88 q-72 0 -86 -88z" />
<glyph unicode="&#xeb;" horiz-adv-x="587" d="M25 260q0 130 72 203t202 73q128 0 195.5 -64.5t67.5 -170.5q0 -20 -2.5 -39t-5.5 -28l-2 -10h-338q10 -100 94 -100q70 0 191 59l66 -113q-154 -81 -277 -81q-117 0 -190 68t-73 203zM141 596v130h138v-130h-138zM215 319h167q-2 88 -81 88q-72 0 -86 -88zM331 596v130 h138v-130h-138z" />
<glyph unicode="&#xec;" horiz-adv-x="283" d="M-67 729h199l127 -143h-150zM49 0v525h185v-525h-185z" />
<glyph unicode="&#xed;" horiz-adv-x="283" d="M25 586l127 143h199l-176 -143h-150zM50 0v525h184v-525h-184z" />
<glyph unicode="&#xee;" horiz-adv-x="283" d="M-53 586l110 143h169l110 -143h-125l-70 67l-70 -67h-124zM49 0v525h185v-525h-185z" />
<glyph unicode="&#xef;" horiz-adv-x="283" d="M-22 596v130h138v-130h-138zM49 0v525h185v-525h-185zM167 596v130h138v-130h-138z" />
<glyph unicode="&#xf0;" horiz-adv-x="642" d="M26 233q0 109 68.5 176t172.5 67q51 0 91 -16t55 -32l15 -15q-30 93 -133 126l-35 -42h-143l49 59l-69 -8l-20 141q40 11 110 11q47 0 93 -8l30 37h144l-59 -71q107 -48 164 -144.5t57 -217.5q0 -144 -80.5 -225.5t-223.5 -81.5q-133 0 -209.5 66t-76.5 178zM218 232 q0 -43 24.5 -73t82.5 -30q57 0 82 29.5t25 73.5t-25 74t-82 30q-58 0 -82.5 -30.5t-24.5 -73.5z" />
<glyph unicode="&#xf1;" d="M49 0v525h185v-55q100 66 195 66q163 0 163 -168v-368h-185v324q0 70 -54 70q-62 0 -119 -55v-339h-185zM118 627q36 70 58 90q28 27 65 27q31 0 83 -23.5t65 -23.5q26 0 52 46l78 -39q-15 -30 -22.5 -43.5t-23.5 -35t-35 -30.5t-42 -9q-31 0 -82 24t-65 24 q-26 0 -53 -46z" />
<glyph unicode="&#xf2;" horiz-adv-x="625" d="M25 263q0 131 74.5 202t213.5 71q138 0 212.5 -71.5t74.5 -202.5t-74.5 -202t-212.5 -71q-139 0 -213.5 71.5t-74.5 202.5zM105 729h198l127 -143h-150zM211 263q0 -134 102 -134q101 0 101 133q0 134 -101 134q-102 0 -102 -133z" />
<glyph unicode="&#xf3;" horiz-adv-x="625" d="M25 263q0 131 74.5 202t213.5 71q138 0 212.5 -71.5t74.5 -202.5t-74.5 -202t-212.5 -71q-139 0 -213.5 71.5t-74.5 202.5zM195 586l127 143h198l-174 -143h-151zM211 263q0 -134 102 -134q101 0 101 133q0 134 -101 134q-102 0 -102 -133z" />
<glyph unicode="&#xf4;" horiz-adv-x="625" d="M25 263q0 131 74.5 202t213.5 71q138 0 212.5 -71.5t74.5 -202.5t-74.5 -202t-212.5 -71q-139 0 -213.5 71.5t-74.5 202.5zM118 586l110 143h169l110 -143h-124l-70 67l-70 -67h-125zM211 263q0 -134 102 -134q101 0 101 133q0 134 -101 134q-102 0 -102 -133z" />
<glyph unicode="&#xf5;" horiz-adv-x="625" d="M25 263q0 131 74.5 202t213.5 71q138 0 212.5 -71.5t74.5 -202.5t-74.5 -202t-212.5 -71q-139 0 -213.5 71.5t-74.5 202.5zM117 612q12 30 18.5 44t21 36t33.5 31.5t45 9.5q28 0 75 -18t70 -19q38 -3 55 37l74 -24q-1 -3 -8 -18.5t-9.5 -21t-9.5 -19.5t-12.5 -20 t-14.5 -16t-18 -14.5t-21 -8t-26 -3.5q-29 0 -76.5 18t-67.5 19q-39 2 -56 -37zM211 263q0 -134 102 -134q101 0 101 133q0 134 -101 134q-102 0 -102 -133z" />
<glyph unicode="&#xf6;" horiz-adv-x="625" d="M25 263q0 131 74.5 202t213.5 71q138 0 212.5 -71.5t74.5 -202.5t-74.5 -202t-212.5 -71q-139 0 -213.5 71.5t-74.5 202.5zM149 596v130h138v-130h-138zM211 263q0 -134 102 -134q101 0 101 133q0 134 -101 134q-102 0 -102 -133zM339 596v130h138v-130h-138z" />
<glyph unicode="&#xf7;" horiz-adv-x="652" d="M64 265v137h523v-137h-523zM241 145q0 34 24.5 57.5t59.5 23.5t60 -23.5t25 -57.5t-25 -57.5t-60 -23.5t-59.5 23.5t-24.5 57.5zM241 523q0 34 25 57.5t60 23.5t59.5 -23.5t24.5 -57.5t-24.5 -58t-59.5 -24t-60 24t-25 58z" />
<glyph unicode="&#xf8;" horiz-adv-x="625" d="M24 263q0 131 74.5 202t213.5 71q87 0 152 -31l17 20h102l-54 -64q71 -73 71 -199q0 -131 -74.5 -202t-213.5 -71q-88 0 -155 31l-17 -20h-105l57 67q-68 71 -68 196zM211 263q0 -30 4 -50l146 172q-20 11 -49 11q-101 0 -101 -133zM260 142q20 -13 52 -13q102 0 102 133 q0 30 -6 56z" />
<glyph unicode="&#xf9;" d="M45 157v368h185v-324q0 -34 11.5 -52t42.5 -18q61 0 119 54v340h184v-525h-184v55q-99 -66 -196 -66q-162 0 -162 168zM108 729h199l126 -143h-150z" />
<glyph unicode="&#xfa;" d="M45 157v368h185v-324q0 -34 11.5 -52t42.5 -18q61 0 119 54v340h184v-525h-184v55q-99 -66 -196 -66q-162 0 -162 168zM199 586l126 143h199l-175 -143h-150z" />
<glyph unicode="&#xfb;" d="M45 157v368h185v-324q0 -34 11.5 -52t42.5 -18q61 0 119 54v340h184v-525h-184v55q-99 -66 -196 -66q-162 0 -162 168zM121 586l109 143h170l110 -143h-124l-70 67l-70 -67h-125z" />
<glyph unicode="&#xfc;" d="M45 157v368h185v-324q0 -34 11.5 -52t42.5 -18q61 0 119 54v340h184v-525h-184v55q-99 -66 -196 -66q-162 0 -162 168zM152 596v130h138v-130h-138zM342 596v130h138v-130h-138z" />
<glyph unicode="&#xfd;" horiz-adv-x="599" d="M2 525h198l100 -303l99 303h199l-286 -729h-197l91 205zM182 586l127 143h198l-174 -143h-151z" />
<glyph unicode="&#xfe;" d="M49 -204v933h185v-256q77 63 169 63q96 0 152 -71t56 -203q0 -131 -56 -202t-152 -71q-91 0 -169 61v-254h-185zM234 192q48 -56 108 -56q82 0 82 127q0 126 -82 126q-59 0 -108 -57v-140z" />
<glyph unicode="&#xff;" horiz-adv-x="599" d="M2 525h198l100 -303l99 303h199l-286 -729h-197l91 205zM136 596v130h138v-130h-138zM326 596v130h138v-130h-138z" />
<glyph unicode="&#x152;" horiz-adv-x="1112" d="M31 350q0 163 87.5 262t267.5 99q89 0 160 -27v16h524v-162h-333v-109h271v-158h-271v-109h338v-162h-529v16q-71 -27 -160 -27q-180 0 -267.5 99t-87.5 262zM228 350q0 -198 158 -198t158 198t-158 198t-158 -198z" />
<glyph unicode="&#x153;" horiz-adv-x="977" d="M25 263q0 131 74.5 202t213.5 71q121 0 193 -55q72 55 183 55q128 0 195 -64.5t67 -170.5q0 -20 -2.5 -39t-4.5 -28l-2 -10h-338q5 -51 27 -75.5t65 -24.5q72 0 192 59l65 -113q-150 -81 -276 -81q-105 0 -173 53q-71 -53 -191 -53q-139 0 -213.5 71.5t-74.5 202.5z M211 263q0 -134 102 -134q101 0 101 133q0 134 -101 134q-102 0 -102 -133zM605 319h166q-3 88 -81 88q-73 0 -85 -88z" />
<glyph unicode="&#x178;" horiz-adv-x="682" d="M-5 700h216l130 -257l130 257h216l-251 -424l1 -276h-192v278zM177 747v130h138v-130h-138zM368 747v130h137v-130h-137z" />
<glyph unicode="&#x2c6;" horiz-adv-x="303" d="M-43 586l110 143h169l110 -143h-124l-70 67l-70 -67h-125z" />
<glyph unicode="&#x2dc;" horiz-adv-x="309" d="M-46 628q36 70 58 90q28 27 65 27q31 0 82 -23.5t65 -23.5q27 0 53 46l78 -39q-15 -30 -23 -43.5t-23.5 -34.5t-34.5 -30t-42 -9q-32 0 -83 23.5t-65 23.5q-26 0 -52 -46z" />
<glyph unicode="&#x2000;" horiz-adv-x="481" />
<glyph unicode="&#x2001;" horiz-adv-x="962" />
<glyph unicode="&#x2002;" horiz-adv-x="481" />
<glyph unicode="&#x2003;" horiz-adv-x="962" />
<glyph unicode="&#x2004;" horiz-adv-x="320" />
<glyph unicode="&#x2005;" horiz-adv-x="240" />
<glyph unicode="&#x2006;" horiz-adv-x="160" />
<glyph unicode="&#x2007;" horiz-adv-x="160" />
<glyph unicode="&#x2008;" horiz-adv-x="120" />
<glyph unicode="&#x2009;" horiz-adv-x="192" />
<glyph unicode="&#x200a;" horiz-adv-x="53" />
<glyph unicode="&#x2010;" horiz-adv-x="434" d="M48 211v147h339v-147h-339z" />
<glyph unicode="&#x2011;" horiz-adv-x="434" d="M48 211v147h339v-147h-339z" />
<glyph unicode="&#x2012;" horiz-adv-x="434" d="M48 211v147h339v-147h-339z" />
<glyph unicode="&#x2013;" horiz-adv-x="564" d="M48 212v145h467v-145h-467z" />
<glyph unicode="&#x2014;" horiz-adv-x="673" d="M48 212v145h576v-145h-576z" />
<glyph unicode="&#x2018;" horiz-adv-x="275" d="M35 569l149 151l47 -60l-83 -117h81v-194h-183z" />
<glyph unicode="&#x2019;" horiz-adv-x="261" d="M39 389l84 117h-82v194h183l11 -220l-148 -151z" />
<glyph unicode="&#x201a;" horiz-adv-x="280" d="M45 -116l84 116h-82v194h183l11 -219l-148 -152z" />
<glyph unicode="&#x201c;" horiz-adv-x="527" d="M35 569l149 151l47 -60l-83 -117h81v-194h-183zM286 569l150 151l47 -60l-83 -117h81v-194h-184z" />
<glyph unicode="&#x201d;" horiz-adv-x="513" d="M39 389l84 117h-82v194h183l11 -220l-148 -151zM291 389l83 117h-81v194h184l11 -220l-150 -151z" />
<glyph unicode="&#x201e;" horiz-adv-x="532" d="M45 -116l84 116h-82v194h183l11 -219l-148 -152zM297 -116l83 116h-81v194h184l11 -219l-150 -152z" />
<glyph unicode="&#x2022;" horiz-adv-x="477" d="M61 285q0 74 52 126t126 52q73 0 125.5 -52.5t52.5 -125.5q0 -74 -52 -125.5t-126 -51.5t-126 51.5t-52 125.5z" />
<glyph unicode="&#x2026;" horiz-adv-x="817" d="M46 0v194h185v-194h-185zM316 0v194h185v-194h-185zM586 0v194h185v-194h-185z" />
<glyph unicode="&#x202f;" horiz-adv-x="192" />
<glyph unicode="&#x2039;" horiz-adv-x="374" d="M23 211v109l304 206v-169l-149 -91l149 -91v-170z" />
<glyph unicode="&#x203a;" horiz-adv-x="374" d="M47 5v171l147 90l-147 91v168l304 -205v-109z" />
<glyph unicode="&#x205f;" horiz-adv-x="240" />
<glyph unicode="&#x20ac;" horiz-adv-x="736" d="M31 233v93h59v43h-59v93h69q23 123 99 186t189 63q80 0 154.5 -26t162.5 -74l-88 -141q-131 69 -204 69q-75 0 -107 -77h193v-93h-212v-43h212v-93h-191q31 -72 105 -72q73 0 204 69l88 -141q-88 -48 -162.5 -74t-154.5 -26q-111 0 -186.5 61.5t-100.5 182.5h-70z" />
<glyph unicode="&#x2122;" horiz-adv-x="627" d="M49 644v56h220v-56h-77v-168h-68v168h-75zM294 476v224h71l68 -120l68 120h71v-224h-68v126l-50 -89h-41l-52 92v-129h-67z" />
<glyph unicode="&#xe000;" horiz-adv-x="525" d="M0 0v525h525v-525h-525z" />
</font>
</defs>
</svg>
