<?xml version="1.0" standalone="no"?>
<!DOCTYPE svg PUBLIC "-//W3C//DTD SVG 1.1//EN" "http://www.w3.org/Graphics/SVG/1.1/DTD/svg11.dtd" >
<svg xmlns="http://www.w3.org/2000/svg">
<metadata>
This is a custom SVG webfont generated by Font Squirrel.
Copyright   : Copyright c 2011 by vernon adams vernnewtypographycouk with Reserved Font Names Amatic Amatic SC
</metadata>
<defs>
<font id="AmaticSCRegular" horiz-adv-x="620" >
<font-face units-per-em="2048" ascent="1638" descent="-410" />
<missing-glyph horiz-adv-x="290" />
<glyph unicode=" "  horiz-adv-x="290" />
<glyph unicode="&#x09;" horiz-adv-x="290" />
<glyph unicode="&#xa0;" horiz-adv-x="290" />
<glyph unicode="!" horiz-adv-x="329" d="M88 39q0 20 21 41.5t46 21.5t40.5 -21.5t15.5 -53.5q0 -51 -51 -54q-3 9 -13 11q-34 5 -59 55zM135 1493q0 21 21.5 38t45 17t23.5 -26q0 -164 -21.5 -489.5t-21.5 -489.5l2 -90q0 -82 -16 -121l6 -10h-27l-2 8v491l5 350z" />
<glyph unicode="&#x22;" horiz-adv-x="636" d="M207 1262q4 29 4 122v17q0 174 21.5 174t35 -23.5t13.5 -66.5t-23.5 -135.5t-42.5 -92.5q-3 0 -8 5zM418 1409v46q0 120 41 120q11 0 18.5 -23.5t7.5 -65t-12 -136.5t-19.5 -95t-9.5 2q-26 40 -26 152z" />
<glyph unicode="#" horiz-adv-x="790" d="M76 635q0 20 69 20h43q31 0 41 2q6 13 21.5 149.5t15.5 164.5l-69 -4q-78 0 -80 37l16 18q118 0 137 6q5 45 18 134q29 186 29 294l-2 41q0 45 31 45l14 -29q0 -80 -18 -237.5t-18 -237.5q29 -8 107 -8t116 14q63 305 76 482q13 16 30 16t25 -20q-1 -79 -37.5 -232.5 t-36.5 -234.5l4 -11h76l27 -28q-13 -33 -27 -33l-86 4q-31 -122 -31 -309l11 -4l38 2q58 0 58 -39q0 -14 -33 -27h-80q-4 -55 -30.5 -285.5t-26.5 -355.5l-23 -26q-37 0 -37 20q0 43 13.5 128t13.5 139t19.5 180.5t19.5 191.5q-55 6 -135 6t-103 -8q-10 -71 -26 -252 q-36 -405 -62 -405q-10 0 -22 5.5t-12 14.5q0 79 25 300t50 337l-88 -8q-61 0 -61 43zM281 674l2 -8q24 -4 93 -4t130 8q37 197 37 293q0 20 -158 20q-46 0 -68 -12q-11 -25 -23.5 -139t-12.5 -158z" />
<glyph unicode="$" horiz-adv-x="538" d="M88 1300q0 55 15 112q29 110 83 110l-8 88q0 53 29 53l16 -18q-2 -14 -2 -46q0 -75 33 -75q39 0 78 -45q51 -51 51 -62.5t-8.5 -22.5t-18.5 -1t-27 37t-36 40t-55 17l-7 -17l7 -161q0 -61 16.5 -234t28 -201.5t57.5 -120.5q109 -221 119 -350q0 -85 -29.5 -121.5 t-49.5 -52.5t-61 -45l9 -116q0 -86 -35 -86q-9 0 -14 15t-5 26l9 6v135l-7 6q-69 0 -102 -4q-72 50 -72 102q0 21 19 21h4q20 -12 26.5 -34.5t18.5 -36t48.5 -13.5t60.5 8q0 165 -54 668q-1 10 -23 57.5t-47 101.5q-67 147 -67 260zM135 1288q0 -128 78 -299q0 -5 6 -8 q-2 89 -18 255t-19 237q-20 -4 -33.5 -75.5t-13.5 -109.5zM281 776q0 -90 17 -268t17 -268l2 -4q40 19 68.5 63t28.5 93t-47 188.5t-86 195.5z" />
<glyph unicode="%" horiz-adv-x="1120" d="M90 1180v8q0 71 24 171q45 193 122 193q104 0 141 -75q63 -108 63 -318l-4 -6l4 -94q0 -236 -95 -309q-35 -27 -83 -27q-172 0 -172 457zM141 1178l4 -113q0 -62 15 -138q28 -151 98 -151q44 0 74 34t42 89q19 93 19 172l-16 256l-4 19q0 61 -37.5 106t-93.5 45 q-43 0 -63 -83q-15 -63 -21.5 -119.5t-7.5 -63.5zM373 41q0 34 10 89t32.5 143.5t93.5 402t131.5 544t63 241.5t6 22t7.5 23q9 26 18 26q31 0 31 -27q0 -17 -20 -99.5t-33 -142t-219 -964.5l-41 -178q-2 -7 -6 -28.5t-7.5 -34.5t-9.5 -30q-12 -32 -37 -34q-20 13 -20 47z M686 350v8q0 457 172 457q48 0 83 -27t52.5 -63.5t28.5 -88.5q14 -72 14 -157l-4 -94l4 -6q0 -118 -28 -199q-51 -153 -177 -153q-39 0 -69 41.5t-46 99.5q-30 116 -30 182zM737 367l8 -54q1 -4 7.5 -47t13.5 -76.5t25.5 -64.5t49.5 -31t58 16.5t42 44t25 63.5t12.5 74.5 t4.5 76.5t1 62.5t-1 45.5t-1.5 49.5t-9.5 73.5t-21 77.5t-38.5 56.5t-60 24t-58.5 -36.5t-34 -89.5q-19 -95 -19 -157z" />
<glyph unicode="&#x26;" horiz-adv-x="942" d="M92 518.5q0 56.5 1.5 93t9 75t11 62t18 63.5t19 55t27 60.5t27.5 56t34 66.5t35 68l-14 287v170q0 62 21.5 95.5t44.5 33.5q47 0 101 -31t54 -74l-6 -122q0 -17 2 -25q-15 -42 -35 -100q-45 -133 -74 -173q-46 -64 -46 -94q0 -61 39.5 -221.5t100 -313.5t107.5 -167 q78 157 78 397q0 35 -18 32q-20 -3 -31 13l2 4l-4 13l6 10q35 0 117.5 8.5t103.5 16.5q35 -5 35 -31q0 -15 -34.5 -24t-67.5 -9l-49 2h-13q0 -158 -17.5 -261t-70.5 -206q71 -82 158 -82l76 6l22 -18q0 -33 -85.5 -33t-192.5 82q-67 -46 -114.5 -65t-118.5 -19t-132.5 50 t-94 121.5t-32.5 128zM137 602q0 -90 13 -142.5t39 -99.5q57 -102 178 -102q41 0 107 24.5t69 57.5q-9 15 -41 47q-65 66 -116.5 202t-66 209t-21.5 134.5t-17 93.5q-70 -91 -107 -212.5t-37 -211.5zM307 1579l2 -254l4 -10q-4 -12 -4 -31.5t3 -48.5t3 -45q35 32 78 158 t43 182q0 123 -76 123q-14 0 -33.5 -29.5t-19.5 -44.5zM764 629q2 0 2 -2z" />
<glyph unicode="'" horiz-adv-x="636" d="M207 1262q4 29 4 122v17q0 174 21.5 174t35 -23.5t13.5 -66.5t-23.5 -135.5t-42.5 -92.5q-3 0 -8 5z" />
<glyph unicode="(" horiz-adv-x="460" d="M94 879q0 68 25.5 239t74.5 338.5t99 169.5l20 -16q-2 -49 -32 -108q-131 -251 -131 -623q0 -649 155 -1018q8 -19 41.5 -79.5t42.5 -96.5q-15 -25 -28.5 -25t-22.5 4.5t-16.5 17t-11.5 18.5q-17 30 -17 42q-94 210 -146.5 529t-52.5 608z" />
<glyph unicode=")" horiz-adv-x="477" d="M72 -255.5q0 9.5 15 39t37 70.5q87 165 147.5 462.5t60.5 500.5q0 350 -92 606q-8 22 -28 57q-44 82 -44 130l20 16q42 -1 81.5 -110t64.5 -253q53 -314 53 -446q0 -233 -63 -498q-138 -598 -222 -598q-11 0 -20.5 7t-9.5 16.5z" />
<glyph unicode="*" horiz-adv-x="905" d="M84 1153q0 10 6.5 17.5t15.5 7.5l277 -2l4 4q-22 40 -85.5 175t-63.5 148q0 23 32 23q14 0 43.5 -71.5t62 -150.5t52.5 -92q9 16 38 104q74 228 109 228q11 0 22 -10.5t11 -22t-26 -53.5q-24 -48 -55.5 -144t-49.5 -136q11 -11 125 -11l176 11q15 0 27 -12.5t12 -26.5 q0 -29 -47 -29l-233 10q-55 0 -64 -6q1 -26 79.5 -181.5t78.5 -173t-9 -26t-25 -8.5t-27 17.5t-17.5 51t-7.5 37.5q-55 131 -111 234q-9 -12 -24 -53l-80 -189q-4 -10 -12 -33q-17 -47 -31 -71l-27 -4l-29 30q0 23 77 174.5t85 198.5q-12 4 -22 4h-232l-33 -2q-22 0 -22 33z M469 1118h2v2q-2 0 -2 -2z" />
<glyph unicode="+" horiz-adv-x="727" d="M100 655q0 29 23 29l108 -6q84 0 84 16l-10 205q0 24 8.5 34.5t32.5 10.5q37 0 37 -35l-8 -20l8 -162q0 -29 13.5 -39t43.5 -10l123 6q64 0 64 -35t-35 -35l-125 7q-65 0 -71 -11q-13 -22 -13 -58t9 -86t9 -77q0 -33 -43 -33q-12 0 -27.5 9t-15.5 20v64l4 106 q0 60 -29 65q-14 3 -40 3l-90 -11q-60 0 -60 43z" />
<glyph unicode="," horiz-adv-x="407" d="M100 -162l4 19q107 89 107 149q-25 14 -42 39t-17 52t24.5 45t52.5 18q46 0 68 -60l-4 -6q4 -8 4 -33t-25 -83t-65 -106.5t-74 -49.5z" />
<glyph unicode="-" d="M113 715q0 21 135 40t182 19q78 0 78 -35q0 -21 -133.5 -40t-183.5 -19t-64 9.5t-14 25.5z" />
<glyph unicode="." horiz-adv-x="327" d="M113 42q0 19 16.5 36.5t35.5 17.5t34.5 -17.5t15.5 -35.5q0 -51 -57 -51q-18 0 -31.5 15.5t-13.5 34.5z" />
<glyph unicode="/" horiz-adv-x="559" d="M86 41q0 34 10.5 90t33 142t93.5 401t131.5 545.5t63 241.5t6 22t7.5 23q9 26 18 26q30 0 30 -27q0 -17 -20 -99.5t-33 -142t-219 -964.5l-41 -178q-2 -7 -6 -28.5t-7.5 -34.5t-9.5 -30q-12 -32 -37 -34q-20 13 -20 47z" />
<glyph unicode="0" horiz-adv-x="606" d="M100 1036l2 328q12 20 22.5 68.5t21.5 68.5q23 41 102 41q20 0 56 -20.5t55.5 -39t33 -44t22.5 -43.5t15.5 -52.5t9.5 -49.5q7 -47 10.5 -81.5t11.5 -94.5t9.5 -72t9 -66.5t9 -72t7 -66t7.5 -72.5t5.5 -66.5t4.5 -71.5q4 -69 4 -125t-2 -96.5t-7.5 -104t-19 -115 t-33.5 -99.5q-44 -104 -134 -104q-19 0 -66 26q-97 60 -150 762l9 8l-2 146q-13 17 -13 108zM147 1329l9 -383l20 -180q0 -733 164 -733q58 0 88 109q28 106 33 192q8 138 8 229t-16 260.5t-47 247.5v88q-22 56 -24 116t-9.5 94.5t-21.5 59.5q-31 56 -134 68 q-48 -39 -59 -69t-11 -99z" />
<glyph unicode="1" horiz-adv-x="606" d="M80 1501q0 29 180 29q14 0 23.5 -10t9.5 -23h4q-6 -30 -6 -78.5t15.5 -177.5t15.5 -219t17 -318.5t17 -291t-4 -78.5q13 -52 13 -232l-3 -30l9 -6l92 6q63 0 63 -29t-45 -29l-252 -8q-14 0 -23 9t-9 22l10 20l55 -2q29 0 40 13t11 43q0 258 -13 470q-15 240 -46 703l2 70 q0 60 -19 94.5t-75 34.5l-47 -4q-35 0 -35 22z" />
<glyph unicode="2" horiz-adv-x="571" d="M78 25q35 44 69 139.5t41 109.5q117 256 175.5 488t58.5 487q0 295 -127 295q-28 -12 -44.5 -42.5t-20.5 -59.5q-8 -76 -35 -76t-27 37t11 76.5t37 72.5t60 33q86 0 139 -65t56 -154l-4 -4l6 -150q0 -167 -46 -408t-110 -384q-5 -12 -52 -109q-109 -225 -111 -270l16 -2 q71 13 246 22l30 -32l-18 -27l-299 -18q-20 0 -35.5 11t-15.5 30z" />
<glyph unicode="3" horiz-adv-x="589" d="M76 1403q32 65 72 101t85 36q74 0 111 -49l6 -2q82 -119 82 -387q0 -50 -37 -115q-9 -6 -33.5 -47t-33.5 -51q80 -32 112 -124q22 -65 35 -148t22 -123q13 -57 13 -110t-1 -79.5t-5 -67.5t-11 -71t-21 -63.5t-33 -54.5q-44 -50 -101 -50t-100 20t-43 56l16 10 q25 -2 52 -22t36 -25q156 0 156 260q0 233 -32 347q-34 121 -108 200l-20 -2q-23 0 -39 8v8l-10 10q1 7 21.5 31t45 53.5t44.5 78.5t20 91t-2 78.5t-9.5 92t-20.5 96.5t-39 71.5t-60 30.5t-56.5 -18.5t-30.5 -40.5q-22 -58 -48 -58q-12 0 -23 8.5t-12 20.5z" />
<glyph unicode="4" horiz-adv-x="526" d="M92 653l19 101l20 401v326l-8 51q0 27 30.5 27t30.5 -29l-8 -164q0 -36 6 -70l-4 -6q4 -36 4 -57l-24 -516l14 -60l-14 -55q0 -39 19.5 -39t55 6t48.5 13q0 74 -8 270.5t-15.5 251.5t-7.5 76q0 32 39 32l18 -22l12 -289q0 -60 6 -185t15 -134l76 8q39 0 39 -23 q0 -30 -57 -25q-22 2 -40 -8t-18 -51t5.5 -178t12.5 -153q-2 -8 -2 -38.5t9 -45.5l-7 -25l7 -14v-29l-33 -25l-31 13v73l-2 5q8 33 8 73l-14 209l4 92q0 80 -21 90l-120 -12q-27 0 -39 9.5t-17 13.5v6q0 10 11 65z" />
<glyph unicode="5" horiz-adv-x="569" d="M88 1565l21 20l157 2q62 0 62 -28l-23 -19h-43l-6 -4l-82 10l-14 -4l-8 2q0 -57 41 -538l-3 -2q0 -1 36 -5q115 -13 148 -37.5t62 -137.5q49 -190 49 -386q0 -149 -9 -199.5t-20.5 -91t-27.5 -68.5q-39 -67 -98 -99h-11q-106 0 -106 32q0 23 39 23l53 -17q31 0 57.5 38 t41.5 92q30 114 30 178.5t-4.5 146.5t-18 201.5t-46 198.5t-80.5 79h-47l-9 -6l-6 2l-45 -18q-38 0 -46 32q-2 11 -3 33.5t-2 30.5q10 58 10 119t-23.5 206t-25.5 214zM150 1335l2 2q-2 0 -2 -2z" />
<glyph unicode="6" horiz-adv-x="516" d="M100 807q0 195 7.5 275.5t16 155.5t23.5 127.5t35 102.5q41 101 115 101q7 0 16 -6t9 -16t-13 -19.5t-32 -17.5t-25 -13q-33 -27 -57 -161q-35 -197 -41 -439q24 16 51.5 16t56.5 -16t50 -46.5t39 -66.5t30 -86t21 -94.5t14.5 -101.5t9 -98.5t4.5 -94t1.5 -78.5 t0.5 -60.5t-2.5 -60t-11 -53t-23.5 -45.5t-41.5 -29.5t-64.5 -11.5t-67 22.5t-43.5 55.5t-24 80t-12.5 87q-8 131 -11 153q-31 225 -31 438zM154 758q-3 -289 51 -592q1 -8 3.5 -28.5t4.5 -31.5t6 -28t10.5 -26.5t16.5 -19.5q19 -20 61 -20q76 0 76 162q0 234 -18 350.5 t-35 188t-47 113.5t-68 42q-61 -40 -61 -110z" />
<glyph unicode="7" horiz-adv-x="450" d="M84 1542l18 19l217 6q14 0 27.5 -11.5t18.5 -25.5q-13 -34 -13.5 -78t-7 -122.5t-86 -646t-100.5 -597.5q2 -6 2 -25.5t-13 -53t-36 -34.5l-25 23q0 34 16.5 82t37 135t45 257t50.5 411t33.5 302t17.5 124q21 132 21 209q0 12 -71 12l-121 -6z" />
<glyph unicode="8" horiz-adv-x="524" d="M88 1442q0 114 62 153q24 15 57 15h37q6 -3 20 -9t21 -10q21 -12 30 -32q39 -88 39 -211t-41 -340q-30 -135 -30 -141t5 -20t12 -30t9 -22q135 -407 135 -691l-6 -49q0 -6 2 -10q-33 -64 -68.5 -93.5t-86.5 -29.5t-80 29t-43 73q-29 86 -29 162q0 312 66 570q3 12 11 34 q19 49 19 68.5t-9.5 52.5t-23.5 73q-108 326 -108 458zM139 1452.5q0 -78.5 39 -272t68 -211.5q61 196 61 366q0 104 -22 167t-52 63l-22 -2q-16 0 -25 6q-47 -38 -47 -116.5zM180 168q0 -42 27 -109l-2 -6q2 -32 20 -62t47 -30q65 0 94 45t29 113q0 194 -78 479 q-6 21 -15 64q-22 94 -40 126q-41 -57 -61.5 -265.5t-20.5 -354.5z" />
<glyph unicode="9" horiz-adv-x="509" d="M84 1243q0 157 49 265q18 39 50.5 66.5t69.5 27.5t80.5 -15.5t58 -38.5t14.5 -325l-3 -242l-14 -82l-6 -690l-14 -152l2 -47q0 -57 -35 -57l-17 20q19 54 19 183l10 571q0 37 -2 110.5t-2 110.5l-14 -4q-110 25 -178 107t-68 192zM137 1263q0 -75 17 -92q6 -73 30 -95 t38.5 -30.5t44 -22.5t50.5 -26l29 4q10 181 10 439q0 58 -21 90.5t-66.5 32.5t-72 -35t-38.5 -89q-21 -101 -21 -176z" />
<glyph unicode=":" horiz-adv-x="344" d="M113 251q0 19 16.5 36.5t35.5 17.5t34.5 -17.5t15.5 -35.5q0 -51 -57 -51q-18 0 -31.5 15.5t-13.5 34.5zM133 1025q0 19 16.5 36.5t35.5 17.5t35 -17.5t16 -35.5q0 -51 -58 -51q-18 0 -31.5 15.5t-13.5 34.5z" />
<glyph unicode=";" horiz-adv-x="391" d="M94 14l4 19q107 89 107 149q-60 36 -60 90q0 28 24.5 46t54 18t48.5 -23.5t19 -58t-23 -94.5t-63 -110.5t-78 -51.5zM180 1025q0 19 16.5 36.5t35.5 17.5t35 -17.5t16 -35.5q0 -51 -58 -51q-18 0 -31.5 15.5t-13.5 34.5z" />
<glyph unicode="&#x3c;" horiz-adv-x="569" d="M84 695.5q0 27.5 48 141.5t105.5 243.5t64.5 151t16.5 55.5t17.5 59q23 71 49 75l27 -20q-18 -119 -140 -362q-116 -233 -116 -339q0 -17 141 -304.5t174 -342.5l18 -14q-2 -11 -10.5 -25t-17.5 -14l-27 4h-4q-32 47 -69 131t-48 107l-102 213q-5 11 -21.5 43.5 t-23.5 50.5q-6 18 -44 68.5t-38 78z" />
<glyph unicode="=" d="M113 756q0 6 180 6h231q15 0 30 -10.5t15 -24.5q0 -6 -215 -6h-198q-17 0 -30 9.5t-13 25.5zM133 638.5q0 8.5 8 8.5l404 -2q7 0 13.5 -10t6.5 -20.5t-12 -10.5q0 4 -395 4q-9 0 -17 11t-8 19.5z" />
<glyph unicode="&#x3e;" horiz-adv-x="569" d="M80 39l18 14q36 65 176 347.5t140 299.5q0 106 -116 339q-122 243 -140 362l26 20q28 -6 50 -75q7 -24 16.5 -58.5t16.5 -56t65 -150.5q153 -344 153 -378t-37.5 -85t-44.5 -69.5t-24 -51t-21 -42.5l-176 -365q-37 -77 -43 -86l-30 -4q-9 0 -18 14t-11 25z" />
<glyph unicode="?" horiz-adv-x="464" d="M94 1400.5q0 40.5 6 68.5t19 53q28 56 104.5 56t98.5 -44q45 -90 45 -206.5t-15.5 -207t-36.5 -171t-41 -173.5q-47 -222 -36 -534q-1 2 -4 0q-10 -6 -21 -6q-18 0 -23 24q0 307 39 559q9 51 33 149q51 216 51 335q0 107 -21.5 168.5t-51.5 61.5h-23q-72 0 -72 -127 q0 -28 15 -123l-25 -8q-23 -2 -26 8q-15 77 -15 117.5zM168 42q0 19 16.5 36.5t35.5 17.5t34.5 -17.5t15.5 -35.5q0 -51 -57 -51q-18 0 -31.5 15.5t-13.5 34.5z" />
<glyph unicode="@" horiz-adv-x="1036" d="M92 1024q0 411 82 626q43 114 136 154q67 29 145.5 29t125.5 -13.5t82.5 -33t66.5 -56t52 -67.5t40.5 -83t30.5 -87.5t23 -96.5q32 -162 35.5 -195.5t10.5 -78t9 -59.5t7 -49q6 -49 6 -111q0 -338 -152 -338q-28 0 -58 23.5t-45 27.5q-36 -88 -119 -129q-41 -20 -83 -20 q-203 0 -203 487v25q0 198 11.5 252.5t26.5 100t36 70.5q52 62 133 62t134 -59q32 -38 93 -612q10 -94 11 -107l23 -10q26 -51 43 -51q79 0 79 311.5t-114 613.5q-30 80 -66 128q-75 96 -224 96q-147 0 -209 -91q-52 -77 -65 -216q-4 -40 -7 -92.5t-4 -60.5t-3.5 -31.5 t-5.5 -35.5q-9 -44 -16 -61q4 -54 4 -90t-8 -56q4 -8 4 -37.5t3 -80t5.5 -77t10 -95t10.5 -95.5t6.5 -78.5t5.5 -84.5t8.5 -76t16.5 -77q26 -82 86.5 -167.5t126.5 -85.5q112 0 197 37.5t167 124.5l19 19q18 18 26 20l18 -19q-14 -51 -65 -96t-115 -73q-137 -60 -240 -60 q-149 0 -259 240q-2 25 -13 48t-14 33q-22 62 -45 310.5t-23 353.5zM366 831q0 -140 14.5 -184.5t29.5 -69.5q29 -51 92 -51q35 0 70 40.5t55.5 91.5t20.5 87v154q0 34 -3 65.5t-4 46.5t-5 39t-5.5 35.5t-6.5 38.5t-7 35q-9 34 -17 84.5t-10.5 63t-7.5 31.5t-12 29.5 t-17.5 21.5t-26 15.5t-37.5 4.5t-42 -12t-33 -30t-22 -46t-14 -53.5t-8 -59.5q-4 -46 -4 -114v-263z" />
<glyph unicode="A" horiz-adv-x="696" d="M78 45q32 46 61.5 224t47.5 258.5t64.5 349.5t63 344.5t25.5 111.5t23 85q33 118 59 118q32 0 42.5 -14.5t18 -68t15 -136t13.5 -151.5q19 -216 23.5 -284t18.5 -98q-4 -62 -4 -106.5t18 -77.5l23 -534v-22q0 -24 -6 -30q-16 -14 -35 -14t-31 10t-12 25q6 12 6 24l-6 41 v203q0 27 -108 46.5t-160 19.5q-20 0 -36 -74.5t-31 -163.5t-30 -111q-48 0 -63 25zM231 426q86 -29 207 -29q25 0 37 4l10 -4q19 0 19 19q0 428 -80 923q-1 6 -4.5 22t-3.5 25q-25 -71 -27 -90l6 -12q-7 -7 -23 -70.5t-44.5 -262t-41 -255t-26.5 -102.5q-29 -102 -29 -156 v-12z" />
<glyph unicode="B" horiz-adv-x="616" d="M109 1389q0 147 53 147q140 0 213.5 -90t73.5 -242t-132 -330q29 -43 67 -93l56 -76q54 -71 64 -124.5t10 -107.5l-6 -88q0 -5 6 -23q-19 -144 -53 -202.5t-76.5 -90t-110.5 -61.5q-14 -1 -40 -10.5t-41 -9.5q-80 0 -80 28l10 519zM172 1378l8 -491l6 -2q72 0 118 83 q37 66 60 135t31 87v78q0 70 -51 134t-119 64q-53 0 -53 -88zM180 788q10 -300 10 -718l13 -2q63 0 147 64.5t95.5 113.5t11.5 125q0 367 -176 440q-20 -1 -54 -11t-47 -12z" />
<glyph unicode="C" horiz-adv-x="696" d="M96 977q0 222 13 262q-7 35 -7 66q0 123 88 191.5t216 68.5q35 0 76.5 -22t41.5 -54q0 -23 -32 -23q-9 0 -25 12.5t-26.5 12.5t-22.5 -4q-24 8 -49 8t-60.5 -10.5t-59 -27t-40 -44.5t-25.5 -53.5t-14 -65.5q-6 -57 -6 -141l6 -145l-18 -148q0 -121 27 -404t55 -326 q54 -83 161.5 -83t157.5 59q19 0 47 7l10 -11q0 -98 -156 -128q-37 -7 -83.5 -7t-109.5 46t-89 102t-51 348t-25 514zM399 1475h4h-4z" />
<glyph unicode="D" horiz-adv-x="702" d="M82 1497q0 49 154 49h10q78 0 168 -86t117.5 -155t36.5 -165.5t12.5 -176.5t13.5 -101l-4 -55l6 -10l-6 -17l6 -10q-12 -19 -12 -57t-4 -70t-8 -50t-13.5 -53.5t-28.5 -113.5q-56 -220 -186 -325t-153.5 -105t-48 10.5t-27.5 30.5q29 37 32 82l9 180l2 82q0 120 -14 279 t-17 198q-9 19 -10 256.5t-4.5 263.5t-17 62t-13.5 57zM162 1450l18 -340q0 -132 15.5 -391.5t15.5 -351t-4 -201.5l4 -8v-58h10q77 41 136 117.5t91.5 160t53.5 182.5q33 162 33 314q0 599 -330 599q-41 0 -43 -23z" />
<glyph unicode="E" horiz-adv-x="497" d="M96 1473l37 57l143 18l7 -6q48 0 55.5 -12.5t7.5 -26.5q0 -39 -74 -39l-55 4q-45 0 -45 -24l16 -348l-10 -256l-4 -4l12 -7l113 21q11 0 24 -11.5t13 -23.5q0 -41 -31 -41l-47 2q-78 0 -78 -39l15 -172l-7 -12v-416q11 -13 11 -57v-19l123 7q96 0 96 -33 q-17 -30 -61 -38.5t-85 -8.5h-48q-92 0 -106 14.5t-14 30.5l19 76v4q-8 41 -8 90l10 209l-12 438l10 407q0 37 -13 109.5t-14 106.5z" />
<glyph unicode="F" horiz-adv-x="438" d="M82 1462v13q0 73 203 73q34 0 34 -47q0 -20 -38 -20l-50 2q-75 0 -75 -47q0 -100 15 -296t15 -296q24 0 69 12t63.5 12t28 -14t9.5 -27q0 -25 -42.5 -31t-85 -10t-42.5 -24q0 -116 19.5 -345.5t19.5 -344.5l-6 -11q6 -15 6 -30q0 -35 -45 -35q-35 0 -35 139l2 66 q0 104 -13 309.5t-13 308.5q0 594 -39 643z" />
<glyph unicode="G" horiz-adv-x="774" d="M94 877q0 176 10 250t21.5 130.5t28 98t41.5 84.5t56 70q70 61 169 61q61 0 61 -35q0 -25 -30 -25l-58 11q-157 0 -203 -287q-26 -156 -26 -408q-6 -162 -6 -224.5t1 -97t4.5 -86.5t12 -93.5t20.5 -89.5t32.5 -83.5t47.5 -65.5q56 -62 157 -62t167 102q0 153 -18.5 208.5 t-34.5 55.5l-82 -8q-47 0 -47 35q0 19 60.5 32t92.5 13q64 0 64 -86q0 -61 20.5 -182.5t20.5 -182.5q0 -32 -27 -32q-49 0 -49 45q0 1 1 5t1 5q-20 -6 -52 -29t-48 -28t-48.5 -7t-47.5 -12h4q-135 30 -202 94q-54 51 -76 173q-38 203 -38 651z" />
<glyph unicode="H" horiz-adv-x="602" d="M94 1532l33 16l27 -22q-9 -76 -9 -152l17 -416l-2 -81q0 -41 8 -72l240 16l2 4l-19 695q0 8 4 28q39 0 49 -54q9 -47 9 -262t15 -662.5t15 -520.5q9 -18 9 -30.5t-11.5 -32t-25.5 -19.5q-29 0 -29 45l2 47q0 315 -20 703l-13 -2l-78 10q-102 0 -145 -25q0 -119 17.5 -354 t16.5 -354q0 -31 -20 -31q-26 0 -33.5 23.5t-11.5 141t-5.5 253.5t-4.5 174q-37 500 -37 934z" />
<glyph unicode="I" horiz-adv-x="477" d="M76 45q0 23 47 23l45 -2q41 0 42 59v16q0 54 -6 128q-6 85 -7.5 169t-11.5 327t-13 349l2 240q0 99 -6 119l-70 -15q-22 0 -22 28.5t90 47t122 18.5q54 0 54 -33.5t-25 -33.5l-49 2q-35 0 -42 -33q-7 -27 -7 -159t25.5 -523t25.5 -588l-2 -106l74 6q53 0 53 -51l-35 -25 l-65 10q-23 0 -47 -24q-46 0 -58 16h-5q-94 0 -109 35z" />
<glyph unicode="J" horiz-adv-x="468" d="M72 1501q0 51 282 51q14 0 23.5 -9.5t9.5 -22.5q0 -31 -95 -31h-22l-2 -39q0 -54 12.5 -162t12.5 -204.5t18.5 -368.5t18.5 -410l-11 -168q0 -23 7 -37l-15 -32q-4 -73 -55 -148t-111 -119q-43 0 -43 39q2 19 35 40.5t39 27.5q90 90 90 313q0 106 -10 303t-14 347 q-11 498 -33 618l-109 -19q-12 0 -20 9.5t-8 21.5zM209 -25q2 0 2 -2z" />
<glyph unicode="K" horiz-adv-x="690" d="M102 88.5q0 94.5 13.5 284t13.5 284.5l-8 736l-4 8l-15 96q0 43 35 43q18 0 25.5 -4t13.5 -28q10 -36 10 -205l-8 -439h2q41 87 109.5 257.5t77.5 191.5q111 284 145 284q35 0 35 -30q-5 -37 -26 -71t-26 -45t-34 -72.5t-50 -107t-47 -106.5q-57 -131 -61 -172l10 -18 l-8 -6q70 -176 161.5 -508t139.5 -469q-3 -39 -41 -39l-28 8q-40 237 -122 528.5t-149 419.5l-6 -4q-6 -24 -43 -87t-41 -99.5t-4 -143.5l10 -452q0 -129 -43 -129q-37 0 -37 94.5z" />
<glyph unicode="L" horiz-adv-x="475" d="M98 1550q0 21 27 21q39 0 39 -37q0 -473 10 -599.5t10 -156.5t-4 -80l6 -8q-4 -54 -4 -109.5t10.5 -212.5t12.5 -223q-8 -12 -8 -41t9.5 -39t40.5 -10t42 13h76q28 -14 28 -32q0 -40 -28 -40q-7 0 -31 8q-10 -4 -41 -4l-64 2q-11 0 -28 -12.5t-31 -12.5t-28.5 13 t-14.5 30l12 93l-20 581z" />
<glyph unicode="M" horiz-adv-x="856" d="M106 111l11 342l-8 415l6 486q0 117 -2 176l39 22q48 -6 180 -655q27 -136 42 -201t21 -92.5t13 -65.5q16 -77 16 -112q12 31 39 169l29 144q12 58 55.5 294.5t57.5 301.5q29 133 32 209l-4 10q6 33 49 33q7 0 16 -10t9 -18q-7 -137 -7 -263t17 -435t16.5 -415t-2.5 -132 v-13q0 -27 5 -77q7 -65 7 -164t-30 -113v6l-8 -8l-39 16v6q0 13 6 25l-8 18q4 122 4 187l-15 673l4 230q0 35 -3.5 98t-4.5 84q-4 -4 -4 -14q-6 -133 -58 -404q-33 -209 -85 -381q-3 -11 -11 -30q-18 -43 -18 -66l6 -10q-2 -7 -9 -53q-16 -101 -56 -101q-45 0 -48 159 q0 26 -5.5 67.5t-91 446t-97.5 421.5q-8 -185 -8 -414l6 -651l10 -195q0 -37 -16 -53q-58 0 -58 107zM250 1010h2h-2z" />
<glyph unicode="N" horiz-adv-x="772" d="M104 811v268l15 387l-2 43q0 26 13.5 34.5t35 8.5t37.5 -12.5t16 -39.5t9 -59t26 -71.5t26.5 -72t17.5 -104t19 -126.5t36 -148t57.5 -206t41.5 -148.5t24 -90.5q32 -114 34 -161q14 -21 21.5 -81t33.5 -82q13 29 13 98l8 713l-6 317l6 78q0 22 -6 26l6 17q0 126 -8 168 q8 28 51 28q33 0 33 -67q-13 -26 -13 -68l2 -69q0 -44 -8 -62l-6 -647q0 -19 4 -55l-4 -9v-258l4 -77q0 -122 -20 -168v-4l6 -74q0 -60 -52 -60q-36 0 -49 77q-7 36 -8 40q-200 631 -252 922q-2 9 -3 28q-2 41 -19 58l4 10q-13 76 -19.5 105.5t-14.5 66.5q-14 65 -36 117 q-6 -42 -6 -64t4 -34q-14 -48 -14 -142v-561q0 -98 14 -292t14 -292l-14 -16h-47l-6 16q4 16 4 82z" />
<glyph unicode="O" horiz-adv-x="696" d="M94 798.5q0 102.5 9 233.5t10 169t2 67t5 69.5t10.5 71t19.5 62.5t32 53q42 47 117.5 47t124.5 -41q7 -11 36.5 -49t44 -72.5t32.5 -169.5q49 -350 49 -621l-19 -264l4 -8q-16 -69 -16 -124t-22 -113.5t-65.5 -105t-93.5 -46.5t-93 38t-71.5 97.5t-50 141t-33.5 160 t-20 162.5q-12 140 -12 242.5zM152 831q0 -142 21.5 -305.5t45 -265.5t66 -174t94.5 -72q70 0 102 142.5t38 253.5q7 152 7 198v49q0 38 -0.5 64.5t-1.5 87t-4 107.5t-8 114t-14 119.5t-20.5 112t-28 102.5t-37.5 80q-43 74 -109 74q-151 0 -151 -607v-80z" />
<glyph unicode="P" horiz-adv-x="540" d="M90 1536q19 29 53 29q73 0 131.5 -34t93.5 -89q72 -115 72 -235t-43 -244q-54 -157 -138 -192q-27 -11 -37 -23q-17 -18 -38 -23l17 -674q0 -30 -8.5 -46.5t-35 -16.5t-26.5 71l8 367l-16 332q0 228 -5.5 375.5t-7 196.5t-2.5 74q-5 79 -18 132zM156 1505l24 -700l4 -4 q21 2 31.5 11.5t20.5 20.5t14 15q133 133 133 334q0 70 -6 112t-34.5 80.5t-49 55.5t-58 44.5t-42.5 30.5h-37z" />
<glyph unicode="Q" horiz-adv-x="727" d="M96 573l10 342l-2 125q0 537 203 537q72 0 142.5 -58t82.5 -128q56 -316 56 -797q0 -277 -39 -393q-15 -43 -88 -148q1 -15 9.5 -38t11.5 -33.5t7 -51t8.5 -69.5t23.5 -53.5t52 -24.5q72 0 72 -27q0 -39 -78 -39q-8 0 -32.5 13t-28.5 14q-39 17 -58.5 63t-31.5 122 t-19 98h-94q-152 108 -188 301q-19 103 -19 245zM154 590q0 -214 61 -370q23 -58 64 -99t94 -41l14 10q4 14 24 15t27 6q65 57 69 191q1 31 1 74t1.5 62t8 53t6.5 52v278q-8 20 -8 71t-3.5 98.5t-12 119.5t-11 95t-4.5 54.5t-4 49t-6 45.5t-10 45t-15.5 38.5t-23 34.5 t-32.5 25q-35 23 -101 23q-139 0 -139 -844v-86z" />
<glyph unicode="R" horiz-adv-x="591" d="M106 20l7 11l8 1243v227l-4 37q0 18 41 18q84 0 128.5 -47t59 -101t22.5 -82q17 -61 17 -95q0 -103 -57 -248q-37 -92 -37 -102q0 -100 80 -403.5t131 -430.5q0 -67 -27 -67q-21 0 -34.5 18.5t-16.5 21.5q-6 80 -52.5 222.5t-57 190t-37.5 193.5t-48 224l-16 12l-39 -16 v-768l4 -51q0 -41 -37 -41q-15 0 -25 9.5t-10 24.5zM168 1044q0 -88 6 -131h4q15 0 53.5 42t53 67t23.5 83t9 96.5t-5.5 80.5t-17.5 91t-38 81.5t-61 32.5v6l-17 -2z" />
<glyph unicode="S" horiz-adv-x="569" d="M80 6q0 25 21.5 25t58 -15.5t69.5 -15.5t70.5 38t57.5 94q40 114 40 213.5t-30 202.5t-73.5 188t-86.5 170q-103 202 -103 382q0 149 90 238q49 47 115 47q21 0 54 -16.5t40 -34.5l-12 -23q-46 0 -67 21q-49 0 -84 -37q-66 -68 -66 -178q0 -81 13 -134.5t20 -81.5t25 -71 t26.5 -64t33 -69t32 -62t37 -67.5t34.5 -63.5l-2 -8q0 -1 47 -158q31 -122 31 -188t-15.5 -129t-45 -121t-81 -95.5t-99 -37.5t-67.5 2q-59 6 -83 49z" />
<glyph unicode="T" horiz-adv-x="542" d="M70 1487q0 21 136 40t216 19q15 0 29 -10.5t14 -24.5q0 -30 -39 -30l-76 6q-35 0 -43 -21q15 -129 15 -266l-3 -248q0 -242 29 -348q-6 -30 -6 -59l10 -477q0 -80 -35 -80q-21 0 -32 28.5t-11 53.5l17 336q0 108 -14.5 326.5t-14.5 328.5l2 192q0 211 -35 211l-116 -12 q-15 0 -29 9.5t-14 25.5z" />
<glyph unicode="U" horiz-adv-x="743" d="M84 1491q0 14 10.5 27.5t24.5 13.5q51 0 51 -150l18 -692q8 -10 10 -49q10 -142 19 -182q-4 -24 -4 -52t19.5 -94t51 -130t78.5 -110t84 -46t55 8t28 17.5t16.5 31.5t8.5 33.5t4 41t1.5 36t-0.5 18.5l6 68v233l-14 123l-12 367v26l-9 12q9 58 9 117l-19 348 q0 16 14.5 24.5t30.5 8.5l35 -33l-6 -16l6 -16l-14 -123l20 -369l10 -356l7 -2q-2 -14 -2 -43l6 -144l6 -6l-6 -6l2 -129q0 -173 -45 -255q-19 -34 -55 -57.5t-93 -23.5t-105 30.5t-74 76.5t-45.5 107t-27.5 115q-23 142 -45 183q0 163 -20.5 487.5t-20.5 487.5z" />
<glyph unicode="V" horiz-adv-x="669" d="M74 1526q7 22 41 22q33 0 43 -74q2 -10 16 -86t74.5 -497.5t113.5 -648.5q11 60 16.5 117t47.5 418q76 653 76 739v8q30 30 51 30l12 -8h-4l21 -16q0 -43 -14.5 -127t-14.5 -127q-21 -38 -79 -584.5t-60 -664.5q-17 -45 -39 -45q-7 0 -31 8q-37 149 -106 606t-104.5 671 t-59.5 259zM358 231h7l-3 5z" />
<glyph unicode="W" horiz-adv-x="950" d="M74 1513q15 27 39.5 27t39.5 -37.5t22.5 -98.5t11.5 -117t6.5 -113t10 -136t47 -350t52.5 -379h4q0 97 15.5 222.5t18.5 157.5t12.5 78.5t11.5 73t8.5 151.5t10.5 163t10.5 83.5t6.5 70.5l-2 37q0 26 29 40q61 0 61 -36l-10 -27q0 -228 85 -544t85 -533l6 -4 q6 24 11.5 123t32 306t31.5 292t26.5 264t21.5 276l-2 39q0 49 53 49q13 0 26 -9.5t13 -26.5t-22 -35q2 -4 2 -13q0 -13 -8 -45q-14 -119 -40.5 -451.5t-67 -571t-40.5 -386.5v-30q0 -24 -7 -37t-30 -13q-48 0 -74 315q-8 95 -63.5 364t-71.5 397l-6 4l-2 -4 q-7 -34 -8 -102.5t-18 -148t-40.5 -380.5t-23.5 -412q0 -7 -12 -20t-25.5 -13t-24.5 13.5t-15.5 39t-6.5 44.5q-2 33 -3 78t-7.5 92t-17.5 105.5t-16.5 97t-37.5 311.5q-85 723 -108 759zM334 1157v4v-4zM651 233l4 3q-4 0 -4 -3z" />
<glyph unicode="X" horiz-adv-x="565" d="M82 14q0 10 8.5 40t21.5 68q33 101 69 278t43.5 213t11.5 55t9 49q9 54 9 114.5t-12 135t-37 179t-31 134t-29 102t-24 113.5q16 27 33.5 27t27 -10t11 -21t2.5 -30t7 -55t40.5 -180.5t46.5 -221.5q39 103 54 186q28 162 31.5 178.5t6.5 42t6.5 46t10.5 44.5q13 51 40 51 q37 0 37 -19.5t-12.5 -50t-26.5 -79.5t-43.5 -200t-37.5 -192t-11.5 -60.5t-9.5 -52.5q-10 -63 -10 -107l108 -553l-4 -11q0 -29 17.5 -83t17.5 -74.5t-10.5 -31.5t-22.5 -11q-37 0 -37 26t-3.5 58t-7.5 54.5t-10 59.5q-45 256 -83 404q-9 -15 -61 -256.5t-58.5 -278 t-7.5 -46.5q-7 -47 -22 -54q-14 -6 -24.5 -6t-22 8t-11.5 18zM283 635q0 -2 4 -2v2h-4z" />
<glyph unicode="Y" horiz-adv-x="505" d="M74 1504q0 42 41 42l24 -16q5 -83 53.5 -323t75.5 -277q32 94 44 235.5t20 214.5q18 160 57 160q31 0 31 -22q0 -16 -8 -44.5t-11.5 -50.5t-23 -131t-28.5 -164q-27 -163 -27 -299l6 -67l-13 -31v-16l15 -246q0 -277 -4 -414l6 -6l2 -14q0 -23 -11.5 -41.5t-33.5 -18.5 q-29 0 -29 50l10 395l-14 166q0 33 -12.5 96t-12.5 87t-5.5 53t-15.5 70t-14.5 63.5t-23.5 122.5q-41 209 -69.5 304.5t-28.5 121.5z" />
<glyph unicode="Z" horiz-adv-x="471" d="M78 8q44 77 65 177t34 222t26 181q65 490 89 647q30 206 32 264l-138 -10q-92 0 -92 41l15 16q16 -4 49 -4l192 21q33 0 33 -37q-22 -49 -29.5 -155t-15.5 -162t-57 -434t-82 -580q-3 -22 -25 -74t-22 -82l133 10q86 0 86 -41l-19 -18l-243 -8q-21 0 -31 26z" />
<glyph unicode="[" horiz-adv-x="514" d="M88 -35q0 85 21.5 253t21.5 295t26.5 463t26.5 505q0 10 -9 24.5t-11 22.5l41 24q235 0 235 -41q0 -10 -10.5 -16t-21.5 -6l-115 12q-62 0 -62 -43q0 -295 -25.5 -675t-33.5 -537t-20 -195v-49l-9 -16q7 -1 67 -4q144 -7 144 -50q0 -20 -45.5 -20t-133 13.5t-87.5 39.5z " />
<glyph unicode="\" horiz-adv-x="559" d="M82 1505q0 27 31 27q14 0 23.5 -41t70 -271.5t132 -547.5t93.5 -400q43 -169 43 -241q0 -24 -20 -37q-25 2 -34 26.5t-12.5 37.5t-7.5 34.5t-6 28.5l-41 178q-19 83 -59 249.5t-63 266.5q-65 275 -87.5 391.5t-33.5 161.5q-29 120 -29 137z" />
<glyph unicode="]" horiz-adv-x="516" d="M78 1511q0 26 53.5 31.5t82.5 7.5q50 2 99 2l41 -24q-2 -8 -11 -22.5t-9 -24.5q0 -162 27.5 -485.5t27.5 -450t20.5 -308t20.5 -272.5q0 -26 -87.5 -39.5t-133 -13.5t-45.5 20q0 43 144 50q60 3 67 4l-8 16v49q-16 35 -39 488.5t-26.5 577t-9 209.5t-5.5 120t-7 43.5 t-28 9.5l-115 -8q-59 0 -59 20z" />
<glyph unicode="^" horiz-adv-x="319" d="M117 1575q0 57 39 57q22 0 36.5 -13.5t14.5 -35.5q0 -45 -41 -45q-49 0 -49 37z" />
<glyph unicode="_" horiz-adv-x="565" d="M100 1090q0 284 99 323q38 0 87.5 -16t49.5 -35q45 -55 75 -267t35 -352l5 -6q0 -44 13 -130t13 -130v-178q-13 -28 -21.5 -96t-19.5 -99q-24 -65 -119 -65q-165 0 -180 299q-2 33 -12 178.5t-13 206.5q-12 200 -12 367zM145 920q0 -267 25 -457q0 -219 56 -307 q28 -42 71 -72q65 0 94 50q43 76 43 196t-20 250.5t-33 289t-16.5 190.5t-7 65.5t-6.5 54.5t-9.5 54t-16.5 54.5t-24 43.5q-28 42 -84 42q-72 0 -72 -368v-86zM270 1587q0 58 52 58q22 0 39.5 -12t17.5 -34.5t-19 -38.5t-43 -16l-32 17z" />
<glyph unicode="`" horiz-adv-x="550" d="M104 1659q0 36 13 45q74 0 92 -23q2 -1 24.5 -8.5t38.5 -13.5t42.5 -16.5t46 -19.5t38.5 -19q39 -22 39 -39q0 -7 -8.5 -12t-14 -5t-102.5 34.5t-106 39.5q-20 -4 -33 -4q-70 0 -70 41z" />
<glyph unicode="a" horiz-adv-x="667" d="M82 25q26 77 54 233t35 194.5t26 155.5t25 154t32.5 160t32 161t12.5 103q17 160 27 178l28 -2q25 0 37 12q13 0 25 -8.5t12 -22.5q0 -98 25 -379t39.5 -363.5t33.5 -162t19 -121.5l-10 -28q0 -46 17 -135.5t17 -126t-16 -45.5q-42 0 -51.5 12t-9.5 38.5t-3.5 65t-7 61.5 t-12 72.5t-10.5 63.5q-39 10 -92 10l-54 -2q-29 12 -64 12t-38 -2t-4 -7t-2 -7l-4 -41q-4 -52 -19 -125q-28 -143 -59 -143q-13 0 -27 11t-14 24zM223 406q0 -21 49 -35q75 -21 166 -21h21q-13 40 -13 92v47q0 127 -31.5 370t-33.5 362q-107 -529 -132.5 -653.5 t-25.5 -161.5z" />
<glyph unicode="b" horiz-adv-x="530" d="M102 84l21 432l-4 182l12 490q0 78 -2 119l-8 10v12q0 53 43 53q28 0 105.5 -24t78.5 -43q-2 -4 -2 -6q38 -60 51 -120.5t13 -182t-33 -211.5h2q-8 -19 -31.5 -53.5t-28.5 -43.5q40 -31 63.5 -88.5t29 -102.5t8.5 -108l2 -53v-29q0 -196 -122 -290q-65 -50 -157 -50 q-18 0 -28.5 12.5t-11.5 31.5t-1 63zM172 150l2 -93q76 0 130 71.5t54 150.5v3q1 18 1 35t-1.5 58.5t-6.5 76t-17.5 76.5t-29.5 71q-42 69 -116 69q-10 -153 -10 -270.5t6 -149.5q-12 -22 -12 -98zM182 766l8 -27h15q135 0 135 273q0 37 -6 127l-4 4q-13 170 -103 170 q-45 0 -45 -269l2 -110l-2 -143v-25z" />
<glyph unicode="c" horiz-adv-x="550" d="M96 446v234q0 273 20 374q40 205 109 259q18 14 55.5 28.5t51.5 22.5h82q2 0 5.5 -1t5.5 -1.5t5.5 -1.5t5 -1.5t4.5 -2t4 -2.5q9 -9 9 -21l-27 -30h-86q-42 0 -73 -39.5t-47.5 -93.5t-26.5 -125q-15 -107 -15 -207l-4 -11l-8 -413q0 -173 33 -248q38 -88 97 -114 q38 -17 77.5 -17t60.5 18q31 0 31 -22q0 -16 -27.5 -35.5t-50.5 -28.5h-68q-13 7 -48 18t-64.5 32.5t-55.5 71t-37 115.5q-18 108 -18 242z" />
<glyph unicode="d" horiz-adv-x="653" d="M94 1305q0 21 17 36t31 15t31.5 -16.5t26.5 -21t43 -10t56.5 -16.5t73.5 -59.5t69 -61.5l-2 -4q2 -13 30.5 -52.5t35.5 -57.5q33 -89 33 -244l-2 -96q0 -81 10 -99q-13 -67 -23.5 -181t-25 -174t-36.5 -103q-54 -102 -179 -170h-142q-18 0 -18 55q-8 159 -8 356l4 484 q0 213 -8 385q-17 14 -17 35zM178 852.5q0 -409.5 23 -733.5l-2 -39l8 -4l6 -27h63q12 17 30.5 31t25.5 20q145 131 145 492l-2 74l-10 206q-4 116 -71 246q-31 62 -82.5 103t-110.5 41q-23 0 -23 -409.5z" />
<glyph unicode="e" horiz-adv-x="491" d="M104 76q15 41 15 84l-10 270l14 617l-8 245q0 58 59 58q23 0 33 -13q7 -2 59 -8q126 -14 129 -51q0 -16 -39 -39q-113 37 -166 39l-10 -12q2 -29 2 -88l-8 -318q0 -57 29 -57l69 4q78 0 80 -37q0 -21 -10.5 -37t-37.5 -16t-40 16l-67 10h-9l-10 -10v-6q4 -53 4 -162 l-4 -291q0 -204 28 -226q18 -15 66 -15l76 4q60 0 60 -27q0 -37 -89 -37h-169q-38 0 -41 43l2 52z" />
<glyph unicode="f" horiz-adv-x="526" d="M98 2q19 197 19 416t14 494.5t14 412.5q0 19 18 29t57 10t132.5 -15t93.5 -44q0 -35 -73 -35q-37 20 -84 20t-54 -2t-9 -5t-5 -14.5t-8 -21.5l-20 -432v-72q0 -7 35 -7h11q91 0 91 -31q0 -17 -16 -28t-33 -11l-68 12q-37 0 -37 -100v-232l12 -293q0 -82 -49 -82z M106 1012q0 2 3 2h2v-2q0 -2 -2.5 -2t-2.5 2z" />
<glyph unicode="g" horiz-adv-x="688" d="M92 592.5q0 86.5 10 190.5t16 198.5t21 158.5q49 216 232 216q63 0 63 -29q0 -14 -13.5 -22.5t-27.5 -8.5l-39 4q-69 0 -108 -88q-42 -98 -52.5 -181t-15.5 -132t-7 -112q-3 -95 -3 -177t6 -131q16 -25 21 -81.5t8.5 -113.5t16 -113t53.5 -91t112 -35q123 0 123 327v150 q-21 21 -72 21l-39 -2q-49 0 -49 24q0 35 49 35q189 0 189 -41l-23 -153l8 -314q-106 -106 -209 -106q-136 0 -178.5 56t-67 260t-24.5 290.5z" />
<glyph unicode="h" horiz-adv-x="606" d="M104 1315q0 14 10.5 26.5t24.5 12.5q41 0 41 -119l-8 -500q0 -24 164 -24q39 0 56.5 14.5t17.5 80.5t-13.5 254.5t-13.5 282.5q0 13 11 22t18 9t43 -12q0 -160 13 -478.5t13 -513t13 -370.5l-13 -23q-2 21 -63 21q-10 455 -10 549l-5 8l7 18q0 32 -7 76l-32 8 q-18 -6 -41 -6l-131 21l-21 -8l-6 -258l6 -9l12 -342q0 -53 -34 -53q-45 0 -45 123l4 375q0 186 -6 200q10 20 10 136zM352 735v4l4 -4h-4z" />
<glyph unicode="i" horiz-adv-x="550" d="M74 1325q0 9 18.5 17t30.5 8q285 0 285 -62q0 -6 -5 -16l-47 -4q-16 12 -59 12l-10 -6q6 -18 6 -109l-6 -487l14 -449l-2 -63q0 -48 6 -57l-2 -5q0 -20 45 -20l60 2q61 0 61 -29q0 -18 -13 -29.5t-32 -11.5l-68 7q-16 0 -38 -11.5t-52.5 -11.5t-38.5 20l-34 -2 q-44 0 -56 21q0 13 11.5 21.5t15.5 13.5h59l8 8l7 43l-15 448l10 478q0 139 -10 237q-20 6 -61 6l-49 -4q-39 0 -39 35z" />
<glyph unicode="j" horiz-adv-x="573" d="M70 -197q0 9 73.5 56.5t81.5 56.5q33 37 49.5 113t16.5 143l-19 1088l-12 22q-9 4 -50 10q-99 13 -99 43q0 8 17 16.5t50 8.5t175.5 -29t142.5 -56.5t-33 -27.5l-111 21q-18 0 -18 -41l20 -850v-225q-12 -27 -12 -77t-13 -101.5t-37 -103.5t-66 -87t-93 -35h-14l-47 47z " />
<glyph unicode="k" horiz-adv-x="677" d="M102 10v385l19 258l20 396v284q11 23 32.5 23t33.5 -12t12 -27q-18 -33 -18 -101t-4 -213t-4 -217q20 8 159.5 282.5t153.5 274.5q52 0 55 -34q-128 -188 -219 -379l-4 -131q0 -93 70 -341q85 -298 144 -378q40 -53 40 -76q0 -41 -35 -41q-48 0 -115.5 184t-113.5 380.5 t-49 267.5l-5 8q-7 -15 -32.5 -66.5t-35.5 -73.5q-30 -71 -30 -145l-10 -147v-262l14 -117q0 -11 -10.5 -18t-29.5 -7t-28.5 8.5t-9.5 34.5z" />
<glyph unicode="l" horiz-adv-x="497" d="M109 20q4 20 4 68l12 1092l10 135q0 14 15 14l34 -8l-2 -162l2 -446q-6 -168 -6 -172l4 -174l-6 -17l2 2l-2 -16q0 -17 6 -29l-6 -196v-13q0 -32 2 -41.5t10 -9.5l193 -6h6q11 0 21 -11.5t10 -23.5q0 -23 -33 -26q-53 2 -170 2l4 -2l-76 -7q-29 0 -34 47z" />
<glyph unicode="m" horiz-adv-x="1054" d="M98 -10q0 216 32 646t32 646l-12 39q0 31 55 31q31 0 40 -32q7 -25 8.5 -51.5t7.5 -60t52.5 -138t56.5 -141.5t26 -91q33 -117 44 -176l27 -54q6 -34 23 -100q34 -139 36 -221q24 36 129 423.5t114.5 438.5t13.5 77.5t8 42t11 37.5q15 42 50 42q13 0 32 -12t19 -25 q0 -858 27 -903l-4 -215q0 -143 20 -213q4 -12 4 -26t-12.5 -37t-32.5 -23q-41 0 -41 131q0 427 -6.5 520.5t-14 151.5t-7.5 89l8 254q0 72 -8 97q-40 -32 -246 -863q-2 -7 -4.5 -30t-6 -42.5t-9.5 -40.5q-13 -46 -42 -46q-34 0 -47.5 16.5t-13.5 50.5q0 84 -106 508 t-142 459q-5 -110 -18 -337q-27 -473 -27 -635t2 -189q-9 -27 -43 -27q-7 0 -21 11t-14 18zM831 1147l5 -2v4h-2z" />
<glyph unicode="n" horiz-adv-x="862" d="M104 829l13 363v36q0 27 1.5 36t3 21.5t4.5 19.5t7 16q8 18 21 29l6 -7l20 5q23 -8 28 -32q0 -2 2.5 -11.5t2.5 -10.5q35 -146 147 -407t136 -335.5t43 -157.5q42 -184 92 -269l4 6q47 447 47 1116l-4 51q0 43 29 43q20 0 32.5 -19t12.5 -40v-137l-11 -17 q0 -160 -22 -619.5t-43 -502.5q-5 -1 -29.5 -7.5t-34.5 -6.5t-18 13.5t-12.5 35.5t-8.5 29l2 6q-13 85 -53.5 194.5t-52.5 147.5q-7 9 -55 153q-184 571 -232 617q-16 -63 -16 -144l4 -161l-4 -99q0 -23 8 -143h-6q0 -341 14 -377v-184q8 -14 8 -36q0 -48 -38 -48 q-43 0 -43 110l8 134zM639 -2q2 0 2 -2z" />
<glyph unicode="o" horiz-adv-x="673" d="M94 715q0 291 40 505q30 156 91 156q14 0 26.5 -11t34 -18.5t59 -14.5t53.5 -10q41 -7 79 -79q86 -146 86 -442l-4 -10l4 -244q0 -461 -148 -561q-36 -25 -81 -25q-240 0 -240 754zM158 717l4 -162q0 -195 44 -371q16 -66 47.5 -115t72 -49t71 30t48.5 83.5t30 109 t17 124.5q8 110 8 196l-23 484l-8 16l4 10q0 89 -50 155t-122 66h-86q-17 0 -30 -182.5t-17 -202.5z" />
<glyph unicode="p" horiz-adv-x="522" d="M102 698q21 35 21 189q0 365 -12 397q20 51 30 51h90q25 0 66.5 -22.5t67.5 -44.5q51 -47 51 -242q0 -173 -15 -209.5t-32 -64t-43 -45.5q-57 -41 -146 -68v-244l17 -399q0 -37 -39 -37l-29 16q-23 123 -23 295l9 381q-13 30 -13 47zM178 1217l10 -295l-8 -193l13 -20 q150 0 157 315v55q0 33 -2 56t-9.5 51t-20.5 45q-31 41 -95 41q-27 0 -36 -13t-9 -42z" />
<glyph unicode="q" horiz-adv-x="688" d="M94 707q0 649 203 661q14 -6 44 -13.5t59 -21t63 -48t54 -81t33 -91.5t19 -103q9 -87 9 -193v-96q0 -151 -23 -341q-45 -371 -121 -419q-3 -2 -14 -7q-25 -11 -25 -24q0 -77 22.5 -176t26.5 -119q15 -15 46 -14h7q50 0 50 -27q0 -28 -27 -28q-106 0 -135 33 q0 91 -21.5 201.5t-25.5 131.5q-106 21 -154 76q-54 61 -72 255t-18 444zM147 702l7 -38v-89q0 -589 159 -589l60 12q41 0 76 116t51 232t16 168v358q0 443 -225 443q-65 0 -97 -138q-47 -206 -47 -475z" />
<glyph unicode="r" horiz-adv-x="550" d="M102 1288q0 78 45 78q100 0 165 -50.5t65 -148.5v-149q0 -79 -80 -226q-27 -49 -27 -53.5t77.5 -324t81.5 -329.5t20 -42t16 -55t-23 -23l-30 10q-48 54 -105 400q-55 334 -94 334h-8q-45 0 -45 -29q0 -112 13 -372.5t22 -291.5l-15 -34h-30l-15 16q-33 887 -33 1290z M160 1260l8 -496l4 -4q39 0 70 40.5t47 98.5q33 120 33 182t-4 93.5t-17 66.5q-27 72 -117 72q-12 0 -18 -19t-6 -34z" />
<glyph unicode="s" horiz-adv-x="489" d="M90 25l10 16l74 -14q47 0 81 36.5t51 92.5q30 104 30 192.5t-25.5 167t-61.5 143.5l-72 130q-87 157 -87 309q0 78 28 149q51 131 134 131q23 0 50.5 -17.5t27.5 -39.5q0 -16 -27 -16l-43 12q-32 0 -56 -25.5t-36 -63.5q-25 -74 -25 -116t2 -60t7.5 -42t7.5 -34 t11.5 -41.5t10.5 -35.5l15 -37q20 -36 52 -90.5t48 -82.5t37 -73.5t30 -82.5q25 -95 25 -170.5t-6 -121t-22.5 -93.5t-40.5 -84q-55 -84 -154 -84l-10 -5q-60 11 -66 50zM317 1311h2q0 2 -2 2v-2z" />
<glyph unicode="t" horiz-adv-x="544" d="M72 1337q9 23 39 23l278 -19l37 2q37 0 37 -26q0 -14 -15 -23.5t-30 -9.5l-111 14l-10 -12l4 -8q-4 -8 -4 -117t34 -509.5t34 -600.5q0 -15 -12 -27t-27 -12l-23 17l-4 149l4 72q0 28 -8 49q0 174 -24.5 507t-26.5 492q-161 0 -172 39z" />
<glyph unicode="u" horiz-adv-x="651" d="M96 1319l13 29q47 -6 47 -113l6 -543l22 -434q0 -233 154 -233q95 0 120 429q2 29 9.5 277t7.5 598l-4 37q0 23 29.5 23t35 -13.5t5.5 -121t-13 -158.5q2 -4 2 -13l-10 -163l2 -41q-4 -52 -5.5 -140t-3 -167t-5.5 -171t-16 -165q-28 -174 -91 -232q-38 -36 -83 -36 q-36 0 -76 23q-39 22 -65.5 55t-42.5 212.5t-19 378.5q-9 598 -19 682z" />
<glyph unicode="v" horiz-adv-x="714" d="M76 1339q0 9 9 18t20 9t23 -17.5t20 -46t14 -55.5t11 -54.5t12.5 -56.5t19.5 -82.5t21.5 -97.5t21 -105.5t18.5 -97t18 -104.5t16 -96.5t16.5 -104.5t14 -96.5t15 -105t14.5 -99.5q42 139 70 393t82 522.5t63 321.5l27 11q23 -7 23 -26t-5 -49t-14 -68.5t-13.5 -60 t-35 -156t-41.5 -206.5t-24 -205.5t-19 -177.5t-25.5 -119.5t-23.5 -97.5t-6 -56.5t-6 -65t-12 -62.5q-16 -70 -64 -70l-23 19q0 334 -182 1136q-3 14 -17 64q-38 136 -38 145zM299 1102q0 4 2 4v-4h-2zM356 137l2 -4v8z" />
<glyph unicode="w" horiz-adv-x="847" d="M78 1311q9 16 27.5 16t27.5 -12.5t12.5 -34t4.5 -40.5q2 -38 4.5 -82.5t45 -392.5t46.5 -534q6 -15 10.5 -55.5t11.5 -54.5h2q23 150 28.5 196t15.5 118t14 112t10 101q9 93 13.5 224t16 210t11.5 106l37 16q13 0 24 -7.5t11 -17.5t-5 -20q94 -318 114 -737 q7 -160 36 -236q27 75 43 357.5t16 393.5t13.5 217t13.5 143.5t-8 50.5q0 32 41 32q17 0 22.5 -4t5.5 -38t-10 -70l4 -13q-18 -81 -18 -145t4 -70l-12 -41l6 -14q-6 -12 -6 -19.5t6 -43.5l-6 -9q0 -74 -16.5 -322.5t-21.5 -286.5t-15.5 -81t-10.5 -67q0 -224 -55 -224 q-35 0 -35 91q-4 54 -22 154t-22 131t-20 225q-40 485 -75 520q-21 -231 -20.5 -283t-8.5 -137.5t-30 -222t-23.5 -155t-6.5 -58t-9.5 -75t-13.5 -76.5q-16 -89 -42 -89q-31 0 -47.5 91.5t-26.5 261.5t-14 204.5t-22 156t-21.5 171t-7 125.5t-6.5 123q-8 133 -41 221z M596 176h2q0 2 -2 2v-2z" />
<glyph unicode="x" horiz-adv-x="518" d="M78 1315q0 8 13.5 14t26 6t22.5 -19q17 -30 20 -104q26 -69 51.5 -204.5t42.5 -190.5q13 27 33 165t29 251t22 117q5 1 16.5 3t16.5 3l18 -25q-33 -49 -33 -180l2 -25l-2 -2q-6 -61 -40.5 -224.5t-34.5 -254.5q0 -34 53 -273.5t62 -262t16 -35.5q16 -25 16 -41 q0 -29 -31 -29q-14 0 -26 6q-12 49 -38 155q-54 221 -77 343q-23 -34 -45 -214.5t-37 -223.5q4 -8 4 -25q0 -51 -31 -51q-38 0 -38 24q0 100 57 319t57 297.5t-54.5 334t-74.5 278.5l2 15q0 13 -9 29t-9 24zM391 641v2v-2z" />
<glyph unicode="y" horiz-adv-x="561" d="M76 1307l28 22q20 -3 60 -130.5t78.5 -255.5t54.5 -132l8 37l-4 10q15 18 39.5 145.5t52.5 242t54 114.5t26 -22t-22 -99.5t-41 -141.5t-28.5 -99t-21.5 -88q-24 -100 -24 -187q10 -25 10 -35l-12 -59l16 -187l2 -325q0 -148 -43 -148q-7 0 -17 8t-13 15q20 50 20 358 q0 60 -7.5 171t-8.5 145l-13 26l6 25q-26 60 -96 259q-102 285 -104 331z" />
<glyph unicode="z" horiz-adv-x="538" d="M84 27q0 35 24 121q59 214 83 331t38 173t59 196q99 311 99 455l-192 -13q-12 0 -20.5 10.5t-8.5 22.5q0 33 227 33q51 0 51 -33q0 -70 -50 -224.5t-50 -183.5q-11 -56 -62 -227q-128 -426 -130 -625q20 -4 59 -4l86 7q59 0 59 -27t-47 -27l-121 6q-23 0 -44.5 -11 t-28.5 -11q-31 0 -31 31z" />
<glyph unicode="{" horiz-adv-x="696" d="M37 757.5q0 15.5 16 18.5q51 0 51 96l-14 433q0 115 36 177t95 62q22 0 50 -11t28 -24q0 -22 -33 -22l-41 8q-73 0 -73 -199v-252l6 -157q0 -49 -10.5 -80t-43.5 -49q33 -17 43.5 -47.5t10.5 -79.5l-6 -211v-223q0 -199 73 -199q59 0 66.5 -8.5t7.5 -18.5 q0 -22 -68.5 -22t-104.5 62t-36 177l6 215l8 242q0 89 -59 94q-8 3 -8 18.5z" />
<glyph unicode="|" horiz-adv-x="514" d="M127 -31.5q0 50.5 12.5 231t12.5 310t16 467t16 429.5t0.5 98.5t2.5 17t6 16.5q11 14 32 14q13 0 13 -22q0 -190 -19.5 -578.5t-19.5 -598t-6 -302.5v-49l-7 -70q0 -20 -26 -20t-29.5 3t-3.5 53.5z" />
<glyph unicode="}" horiz-adv-x="696" d="M37 -23q0 23 33 23l41 -2q73 0 73 199v252l-6 157q0 50 10 80.5t43 48.5q-33 17 -43 47t-10 80l6 211v223q0 199 -73 199h-31q-43 0 -43 21q0 12 26.5 20t51.5 8q59 0 95 -62t36 -177l-6 -215l-9 -242q0 -89 60 -94q8 -3 8 -18.5t-16 -18.5q-52 0 -52 -96l15 -433 q0 -115 -36 -177t-95 -62q-25 0 -51.5 8t-26.5 20z" />
<glyph unicode="~" horiz-adv-x="653" d="M111 1055q0 63 32 104t93 41q66 -34 81 -45q15 -30 40 -55t44 -25t25 2l14 -4q5 14 20 23q27 16 27 53l-12 39q6 12 25.5 12t31 -22t11.5 -56.5t-33 -67t-73 -32.5t-77 21.5t-56 41t-52 58.5l-14 6h-37q-3 -12 -21 -25t-18 -25.5t10 -47.5l-22 -31q-13 0 -26 11t-13 24z " />
<glyph unicode="&#xa2;" horiz-adv-x="651" d="M94 842q0 312 164 401l-10 127q0 66 26 66l13 -9q-2 -18 -2 -65.5t10 -122.5q8 -3 43 -14t63 -20.5t52 -28.5t24 -34q0 -34 -18 -34t-34.5 24.5t-22 30.5t-30 13.5t-32.5 17.5h-37l-2 4q0 -131 30.5 -384t30.5 -384l-2 -29q0 -18 17 -32q78 0 127 57q20 23 47 63 q22 0 22 -38.5t-71.5 -81.5t-116.5 -43h-18l-2 -105l6 -194q0 -12 -8.5 -15t-16.5 2t-8 11l-4 -2q-4 114 -4 180v127q-116 47 -144 73q-56 52 -65 109q-27 120 -27 330zM145 788q0 -391 162 -391l8 4q0 149 -32 469q-13 215 -33 291q-39 -6 -65.5 -86.5t-22.5 -97.5 q-17 -140 -17 -189z" />
<glyph unicode="&#xa3;" horiz-adv-x="757" d="M82 50q0 17 22 33.5t55.5 31.5t41.5 20q37 27 54 102.5t17 147.5t-18 156t-50 190t-44 158l-10 -2q-11 0 -20 7.5t-9 20.5q0 29 26 29l-24 291q0 84 17 181q34 190 104 190h65q44 0 94 -80t50 -127l-19 -21q-26 0 -35.5 22t-11.5 25v37q-4 5 -13.5 36.5t-27.5 31.5 q-31 31 -63 31l-17 -7l-16 -14q-31 0 -53.5 -108.5t-22.5 -163.5v-84q11 -27 12.5 -87.5t4 -103.5t16.5 -43q36 0 107.5 13.5t95.5 13.5q41 0 41 -27q0 -32 -25 -32q-121 0 -219 -19q6 -14 10.5 -40.5t5.5 -31.5t9 -26t8 -29q0 -55 41 -188t41 -192t-7 -93t-25.5 -86 t-23.5 -70q50 0 148.5 -22.5t148.5 -22.5t90 17l29 -21q0 -45 -96 -45l-94 6l-7 -4q-38 23 -145 35l-35 4q-56 0 -93.5 -13.5t-98.5 -49.5q-31 6 -31 23z" />
<glyph unicode="&#xa5;" horiz-adv-x="942" d="M74 1716v31q24 8 31.5 8t30 -21.5t48.5 -57t48 -68t45 -68.5t28 -43q2 -18 41.5 -77t42.5 -64.5t17.5 -32.5t26 -47.5t27.5 -47.5q33 -55 48 -57q22 44 38.5 99t35 116.5t36.5 119t38 122.5q45 139 61.5 160.5t33.5 21.5q37 0 37 -30q-40 -94 -93 -277t-81 -258 q0 -38 -32 -103t-33 -95q26 -13 51 -13l221 10q11 0 37 -43q-2 -26 -151 -26h-158l-4 -111h227l39 2q43 0 43 -45q0 -11 -13 -20.5t-24 -9.5h-8l4 2q-30 8 -37 8h-227l-8 -4q0 -109 -15.5 -326.5t-15.5 -327.5l2 -53q0 -74 -47 -74q-41 0 -41 25q6 12 16.5 124.5t10.5 141.5 l16 467q0 11 -4 23q-98 0 -256 -11q-19 11 -35 39l8 27q162 0 293 8q4 31 4 94q0 27 -22 27l-148 -8q-114 0 -114 37l14 22l160 -2q98 0 110 14v39q-24 14 -100 151.5t-164.5 289t-138.5 192.5z" />
<glyph unicode="&#xa9;" horiz-adv-x="1157" d="M98 929.5q0 59.5 3.5 126.5t15 155t30 165.5t51 154.5t74.5 133q96 124 244 124q161 0 272 -115q110 -114 168 -277q62 -178 80 -303q29 -201 29 -337q0 -754 -500 -754q-265 0 -365 171q-63 106 -80 330q-3 37 -12.5 202t-9.5 224.5zM170 940q0 -82 8 -195t11 -167 t6 -92t13 -103.5t23.5 -103.5t39.5 -86t61 -73q86 -63 196 -63t185.5 28.5t126.5 84.5q92 104 137 295q-2 4 -2 10l22 113v305q0 46 -18.5 133.5t-20.5 97.5q-64 400 -286 553q-10 10 -20 15t-20 12t-14.5 9.5t-14 7.5t-15.5 7t-14 4q-16 5 -33 5q-240 0 -329 -383 q-42 -185 -42 -414zM311 742v122q0 139 15.5 243t28 144.5t32.5 86.5t45 74q60 65 139 65q44 0 73.5 -10t86.5 -87t57 -105t-26 -28q-36 0 -73 82q-14 31 -42.5 56.5t-69.5 25.5t-74 -29t-51 -70t-30.5 -101.5t-17 -108t-8.5 -106t-7 -78.5l4 -9q-8 -27 -8 -59v-44 q0 -232 22.5 -304t47.5 -105v-6q24 -27 37 -39.5t42.5 -27.5t65.5 -15t69 17t50 38q45 54 59 54q31 0 31 -45.5t-75.5 -84t-114.5 -38.5t-64.5 6t-40.5 12.5t-43.5 21.5t-42.5 21q-81 102 -102 233q-15 101 -15 198z" />
<glyph unicode="&#xad;" d="M113 715q0 21 135 40t182 19q78 0 78 -35q0 -21 -133.5 -40t-183.5 -19t-64 9.5t-14 25.5z" />
<glyph unicode="&#xae;" horiz-adv-x="1161" d="M102 715l2 270q0 930 502 930q81 0 162 -53t133 -127q32 -9 40 -46q8 -39 28 -57q0 -44 38 -257q58 -326 58 -455v-66q0 -321 -15 -426.5t-31 -189.5q-32 -170 -108.5 -248.5t-143.5 -117t-151 -38.5t-149 19t-113.5 50.5t-87 80t-64.5 99.5t-45 118t-29.5 126t-16.5 133 q-9 111 -9 255zM172 1042l14 -426q0 -551 202 -662q45 -25 58 -38q35 -14 68 -14l18 -8q260 0 376 230q89 177 89 583q0 588 -123 944l15 16q-20 50 -58 64q-37 39 -61 61q-73 63 -151 63t-144.5 -30t-112 -79.5t-80.5 -119.5t-55.5 -141.5t-32.5 -154.5q-22 -143 -22 -288z M362 1446q0 59 11 91t37 49q42 26 117 26t111 -14.5t58.5 -41.5t37.5 -58t22 -73q12 -72 12 -148t-14.5 -126.5t-35 -76t-41.5 -43t-35.5 -32t-14.5 -31.5t46 -186q134 -491 142 -491v-2l31 -90q0 -15 -39 -31q-60 0 -127 316q-10 49 -19.5 78t-34.5 134q-58 244 -73 244 q-16 0 -42.5 -13.5t-45.5 -13.5q-6 -78 -6 -146.5t22.5 -262.5t22.5 -254.5t-6.5 -71t-26.5 -10.5t-34.5 11t-14.5 30q0 176 -5 233t-17.5 126.5t-12.5 107.5v399q0 63 -12.5 187.5t-12.5 183.5zM438 1415q0 -440 34.5 -440t112 63.5t92.5 108.5t15 99t-0.5 71t-3 49.5 t-7 53.5t-14 47.5t-23.5 42.5q-32 38 -97.5 38t-87 -25.5t-21.5 -107.5z" />
<glyph unicode="&#xb4;" horiz-adv-x="497" d="M98 1339q0 12 121.5 105.5t132.5 103.5q45 0 45 -32q0 -1 -6 -31q-103 -46 -256 -176q-37 0 -37 30z" />
<glyph unicode="&#x2000;" horiz-adv-x="957" />
<glyph unicode="&#x2001;" horiz-adv-x="1915" />
<glyph unicode="&#x2002;" horiz-adv-x="957" />
<glyph unicode="&#x2003;" horiz-adv-x="1915" />
<glyph unicode="&#x2004;" horiz-adv-x="638" />
<glyph unicode="&#x2005;" horiz-adv-x="478" />
<glyph unicode="&#x2006;" horiz-adv-x="319" />
<glyph unicode="&#x2007;" horiz-adv-x="319" />
<glyph unicode="&#x2008;" horiz-adv-x="239" />
<glyph unicode="&#x2009;" horiz-adv-x="383" />
<glyph unicode="&#x200a;" horiz-adv-x="106" />
<glyph unicode="&#x2010;" d="M113 715q0 21 135 40t182 19q78 0 78 -35q0 -21 -133.5 -40t-183.5 -19t-64 9.5t-14 25.5z" />
<glyph unicode="&#x2011;" d="M113 715q0 21 135 40t182 19q78 0 78 -35q0 -21 -133.5 -40t-183.5 -19t-64 9.5t-14 25.5z" />
<glyph unicode="&#x2012;" d="M113 715q0 21 135 40t182 19q78 0 78 -35q0 -21 -133.5 -40t-183.5 -19t-64 9.5t-14 25.5z" />
<glyph unicode="&#x2013;" d="M10 756q0 6 283 6h293q15 0 30 -10.5t15 -24.5h-62q0 -6 -215 -6h-301q-17 0 -30 9.5t-13 25.5z" />
<glyph unicode="&#x2014;" d="M10 756q0 6 570 6h292q15 0 30.5 -10.5t15.5 -24.5h-62q0 -6 -215 -6h-588q-17 0 -30 9.5t-13 25.5z" />
<glyph unicode="&#x2018;" horiz-adv-x="395" d="M100 1276l4 6q-4 8 -4 33.5t25 83.5t65 106t74 49l33 -16l-4 -18q-107 -86 -107 -150q60 -36 60 -90q0 -28 -24.5 -45.5t-53.5 -17.5q-47 0 -68 59z" />
<glyph unicode="&#x2019;" horiz-adv-x="397" d="M96 1233l4 18q107 86 107 150q-60 36 -60 90q0 28 24.5 45.5t53.5 17.5q47 0 68 -59l-4 -6q4 -8 4 -33.5t-25 -83.5t-65 -106t-74 -49z" />
<glyph unicode="&#x201c;" horiz-adv-x="608" d="M100 1276l4 6q-4 8 -4 33.5t25 83.5t65 106t74 49l33 -16l-4 -18q-107 -86 -107 -150q60 -36 60 -90q0 -28 -24.5 -45.5t-53.5 -17.5q-47 0 -68 59zM313 1276l4 6q-4 8 -4 33.5t25 83.5t65 106t74 49l33 -16l-4 -18q-107 -86 -107 -150q60 -36 60 -90q0 -28 -24.5 -45.5 t-53.5 -17.5q-47 0 -68 59z" />
<glyph unicode="&#x201d;" horiz-adv-x="643" d="M96 1233l4 18q107 86 107 150q-60 36 -60 90q0 28 24.5 45.5t53.5 17.5q47 0 68 -59l-4 -6q4 -8 4 -33.5t-25 -83.5t-65 -106t-74 -49zM342 1233l4 18q107 86 107 150q-60 36 -60 90q0 28 24.5 45.5t53.5 17.5q47 0 68 -59l-4 -6q4 -8 4 -33.5t-25 -83.5t-65 -106 t-74 -49z" />
<glyph unicode="&#x2022;" horiz-adv-x="868" d="M301 701q0 48 31.5 102.5t94.5 54.5t104.5 -33.5t41.5 -71.5t-6 -63.5t-21 -53.5q-32 -65 -120 -65q-53 0 -89 41t-36 89z" />
<glyph unicode="&#x2026;" horiz-adv-x="983" d="M113 42q0 19 16.5 36.5t35.5 17.5t34.5 -17.5t15.5 -35.5q0 -51 -57 -51q-18 0 -31.5 15.5t-13.5 34.5zM440 42q0 19 17 36.5t36 17.5t34.5 -17.5t15.5 -35.5q0 -51 -58 -51q-18 0 -31.5 15.5t-13.5 34.5zM768 42q0 19 16.5 36.5t35.5 17.5t34.5 -17.5t15.5 -35.5 q0 -51 -57 -51q-18 0 -31.5 15.5t-13.5 34.5z" />
<glyph unicode="&#x202f;" horiz-adv-x="383" />
<glyph unicode="&#x205f;" horiz-adv-x="478" />
<glyph unicode="&#x20ac;" horiz-adv-x="606" d="M100 1036l2 328q12 20 22.5 68.5t21.5 68.5q23 41 102 41q20 0 56 -20.5t55.5 -39t33 -44t22.5 -43.5t15.5 -52.5t9.5 -49.5q7 -47 10.5 -81.5t11.5 -94.5t9.5 -72t9 -66.5t9 -72t7 -66t7.5 -72.5t5.5 -66.5t4.5 -71.5q4 -69 4 -125t-2 -96.5t-7.5 -104t-19 -115 t-33.5 -99.5q-44 -104 -134 -104q-19 0 -66 26q-97 60 -150 762l9 8l-2 146q-13 17 -13 108zM147 1329l9 -383l20 -180q0 -733 164 -733q58 0 88 109q28 106 33 192q8 138 8 229t-16 260.5t-47 247.5v88q-22 56 -24 116t-9.5 94.5t-21.5 59.5q-31 56 -134 68 q-48 -39 -59 -69t-11 -99z" />
<glyph unicode="&#x2122;" horiz-adv-x="1075" d="M88 1513v7l14 24q24 2 92 8q132 13 209 13l56 -4l24 -25q0 -35 -75 -35l-74 2l-6 -8q-6 -67 -6 -133l14 -492q0 -82 -6 -161q8 -24 8 -30t-15 -17t-28 -15l-29 15q2 8 2 26l-2 51v11q6 6 6 61.5t-6 67.5q4 54 4 82l-8 229l6 213q0 88 -10 98l-113 -8q-57 0 -57 20z M502 690l12 217q0 426 18 639q4 4 13 16q19 27 34 27t37 -22q-2 -6 -2 -43t44 -173.5t48 -158.5t8 -54q8 -80 19 -85q57 137 85.5 247.5t42.5 168t17.5 75t6 26.5t8.5 21.5t16 18.5t23 6t23 -8t10 -21l-23 -434l14 -367q0 -145 -53 -145q-16 0 -23.5 4.5t-7.5 20.5l13 235 l-11 291l7 127q0 14 -4 20q-2 -9 -14 -70q-28 -144 -52 -161q-12 -24 -12 -68l-6 -6l2 -4q-1 -3 -11 -52q-23 -114 -54.5 -114t-43 38.5t-15 91.5t-12.5 69q-8 65 -38 183t-39 169q-15 -199 -15 -431t11 -251v-8q0 -69 -22 -79q-11 -5 -30 -5q-24 0 -24 49zM733 1040h2h-2z " />
<glyph unicode="&#xe000;" horiz-adv-x="1355" d="M0 1355h1355v-1355h-1355v1355z" />
</font>
</defs>
</svg>
